<?xml version="1.0" standalone="no"?>
<!DOCTYPE svg PUBLIC "-//W3C//DTD SVG 1.1//EN" "http://www.w3.org/Graphics/SVG/1.1/DTD/svg11.dtd">
<svg xmlns="http://www.w3.org/2000/svg">
<defs >
<font id="PlusJakartaSans" horiz-adv-x="587" ><font-face
    font-family="Plus Jakarta Sans"
    units-per-em="1000"
    panose-1="0 0 0 0 0 0 0 0 0 0"
    ascent="1038"
    descent="-222"
    alphabetic="0" />
<glyph unicode=" " horiz-adv-x="170" />
<glyph unicode="!" horiz-adv-x="283" d="M99 214L168 745H248L169 214H99ZM64 0L79 110H159L144 0H64Z" />
<glyph unicode="&quot;" horiz-adv-x="395" d="M132 527L149 745H229L187 527H132ZM282 527L299 745H379L337 527H282Z" />
<glyph unicode="#" horiz-adv-x="790" d="M66 0L149 195H29L39 265H179L271 480H151L161 550H301L384 745H464L381 550H591L674 745H754L671 550H791L781 480H641L549 265H669L659 195H519L436 0H356L439 195H229L146 0H66ZM259 265H469L561 480H351L259 265Z" />
<glyph unicode="$" horiz-adv-x="647" d="M311 -12Q244 -12 189 13T95 84T44 190L118 213Q135 137 187 99T317 60Q373 60 411 78T470 128T490 199Q490 243 464 271T388 315L258 355Q188 377 151 425T113 537Q113 597 144 647T230 727T357 757Q423 757 474 732T558
667T602 577L530 553Q515 615 470 650T357 685Q309 685 272 667T213 618T192 544Q192 504 217 473T296 424L410 389Q490 364 530 316T570 203Q570 147 539 98T451 18T311 -12ZM240 -100L372 845H443L311 -100H240Z" />
<glyph unicode="%" horiz-adv-x="1001" d="M114 0L828 745H925L211 0H114ZM275 367Q224 367 183 391T117 456T93 548Q93 605 121 652T197 728T302 757Q353 757 394 733T459 668T483 576Q483 520 455 472T379 396T275 367ZM280 439Q314 439 343 457T390 506T408
570Q408 600 394 626T355 669T297 685Q263 685 234 667T186 619T168 554Q168 524 182 498T222 456T280 439ZM728 -12Q677 -12 636 12T570 77T546 169Q546 226 575 273T651 349T756 378Q807 378 848 354T912 289T936 197Q936 141 908 93T832 17T728 -12ZM733 60Q767
60 796 78T843 126T861 191Q861 221 847 247T809 289T751 306Q717 306 688 288T640 240T622 175Q622 145 636 119T675 77T733 60Z" />
<glyph unicode="&amp;" horiz-adv-x="742" d="M239 -12Q184 -12 140 8T70 68T44 164Q44 209 59 244T100 306T155 354T216 393L294 438Q339 464 368 490T410 544T424 598Q424 636 401 659T339 683Q307 683 282 668T241 627T226 571Q226 545 237 520T264 473T299
429L665 0H559L234 379Q214 402 194 430T160 491T146 564Q146 616 171 660T241 730T341 757Q389 757 425 737T481 682T502 602Q502 551 479 511T420 439T342 383L262 336Q230 317 199 294T149 241T129 167Q129 114 161 88T243 62Q281 62 310 74T362 106T405 151T444
199L578 369H670L515 164Q496 139 471 109T412 51T336 6T239 -12Z" />
<glyph unicode="&apos;" horiz-adv-x="245" d="M132 527L149 745H229L187 527H132Z" />
<glyph unicode="(" horiz-adv-x="311" d="M169 -140Q110 -64 80 28T49 225Q49 323 73 416T146 593T262 745H327Q263 668 219 583T152 408T129 229Q129 132 155 39T234 -140H169Z" />
<glyph unicode=")" horiz-adv-x="312" d="M-6 -140Q58 -61 102 24T168 199T191 377Q191 474 165 567T87 745H152Q213 668 242 575T272 381Q272 285 248 192T176 15T59 -140H-6Z" />
<glyph unicode="*" horiz-adv-x="479" d="M168 383L116 425L218 539L97 582L129 650L251 608L270 745H342L323 608L457 650L469 582L336 539L406 425L342 383L271 497L168 383Z" />
<glyph unicode="+" horiz-adv-x="607" d="M229 0L259 213H46L56 288H269L299 500H375L345 288H556L546 213H335L305 0H229Z" />
<glyph unicode="," horiz-adv-x="270" d="M24 -130L28 -100Q60 -92 79 -67T105 0H62L78 110H158L145 16Q137 -42 106 -80T24 -130Z" />
<glyph unicode="-" horiz-adv-x="498" d="M69 233L79 303H429L419 233H69Z" />
<glyph unicode="." horiz-adv-x="286" d="M65 0L81 110H161L145 0H65Z" />
<glyph unicode="/" horiz-adv-x="433" d="M-52 -120L402 705H493L39 -120H-52Z" />
<glyph unicode="0" horiz-adv-x="734" d="M345 -12Q265 -12 206 28T116 141T84 312Q84 399 106 479T172 621T278 720T418 757Q499 757 557 717T647 605T679 435Q679 348 657 268T593 125T488 25T345 -12ZM347 63Q408 63 455 94T534 179T582 299T599 435Q599 548
551 615T416 682Q355 682 308 651T229 566T181 446T164 311Q164 236 186 180T249 94T347 63Z" />
<glyph unicode="1" horiz-adv-x="372" d="M143 0L238 675H98L108 745H328L224 0H143Z" />
<glyph unicode="2" horiz-adv-x="620" d="M41 0L46 50L278 279Q331 332 370 370T434 440T471 501T484 568Q484 623 450 655T353 687Q288 687 239 649T165 541L93 561Q113 622 150 665T240 733T353 757Q415 757 462 735T537 671T564 573Q564 535 553 501T518 433T461
361T379 278L163 70H533L524 0H41Z" />
<glyph unicode="3" horiz-adv-x="609" d="M267 -12Q209 -12 160 8T78 65T30 153L97 183Q114 125 160 92T273 58Q327 58 369 80T435 142T459 234Q459 283 439 317T383 370T302 389Q289 389 274 388T246 383L235 420L463 675H119L128 745H565L557 675L345 438L331
452Q395 451 441 422T513 344T539 234Q539 181 519 136T461 58T375 7T267 -12Z" />
<glyph unicode="4" horiz-adv-x="631" d="M388 0L412 176H33L42 241L492 745H563L493 241H583L573 176H483L459 0H388ZM105 212L95 241H422L483 676L511 669L105 212Z" />
<glyph unicode="5" horiz-adv-x="615" d="M274 -12Q214 -12 166 8T84 65T36 153L100 183Q117 125 166 92T276 58Q329 58 372 84T440 155T466 253Q466 298 446 332T392 386T314 406Q252 406 211 384T147 329L86 341L198 746H569L560 676H218L253 703L165 384L139
398Q178 445 224 461T325 478Q392 478 441 447T518 365T546 253Q546 196 525 148T465 64T378 8T274 -12Z" />
<glyph unicode="6" horiz-adv-x="598" d="M271 -12Q206 -12 157 15T81 91T54 204Q54 253 68 299T109 388T170 472L405 745H505L210 406L190 398Q208 423 229 436T274 455T326 461Q386 461 433 435T508 361T536 251Q536 177 501 117T405 23T271 -12ZM274 58Q324
58 365 83T431 151T456 247Q456 310 417 349T315 389Q265 389 224 365T158 298T133 201Q133 138 172 98T274 58Z" />
<glyph unicode="7" horiz-adv-x="544" d="M39 0L470 676H101L110 746H565L556 676L126 0H39Z" />
<glyph unicode="8" horiz-adv-x="629" d="M288 -12Q220 -12 168 14T86 86T56 192Q56 244 78 290T139 370T229 420L227 399Q181 420 157 460T132 549Q132 605 162 652T244 728T362 757Q418 757 461 736T530 676T555 586Q555 544 539 508T494 444T428 399L429 420Q490
400 524 351T558 236Q558 169 523 113T428 22T288 -12ZM291 58Q346 58 388 80T454 142T478 232Q478 297 437 334T324 372Q267 372 225 349T159 286T136 199Q136 135 178 97T291 58ZM331 442Q373 442 405 460T456 509T475 577Q475 628 442 657T357 687Q316 687 283
669T231 621T212 552Q212 502 245 472T331 442Z" />
<glyph unicode="9" horiz-adv-x="599" d="M123 0L418 339L438 347Q421 323 400 309T354 290T302 284Q242 284 195 310T120 384T92 494Q92 569 127 628T223 722T357 757Q423 757 471 730T547 654T574 541Q574 492 560 446T519 357T458 273L223 0H123ZM313 356Q364
356 405 380T470 447T495 544Q495 607 456 647T354 687Q305 687 264 662T197 594T172 498Q172 435 211 396T313 356Z" />
<glyph unicode=":" horiz-adv-x="286" d="M65 0L81 110H161L145 0H65ZM125 426L141 536H221L205 426H125Z" />
<glyph unicode=";" horiz-adv-x="306" d="M47 -130L51 -100Q83 -92 102 -67T128 0H85L101 110H181L168 16Q160 -42 129 -80T47 -130ZM145 426L161 536H241L225 426H145Z" />
<glyph unicode="&lt;" horiz-adv-x="607" d="M503 39L120 234L130 302L567 497L556 414L184 251L185 281L513 113L503 39Z" />
<glyph unicode="=" horiz-adv-x="607" d="M87 331L98 406H548L537 331H87ZM54 96L65 171H515L504 96H54Z" />
<glyph unicode="&gt;" horiz-adv-x="607" d="M40 39L51 122L423 285L422 255L94 423L104 497L487 302L477 234L40 39Z" />
<glyph unicode="?" horiz-adv-x="500" d="M186 214L188 224Q202 290 233 337T309 425Q334 448 359 471T402 522T419 585Q419 626 390 656T304 687Q249 687 206 652T148 559L78 574Q91 629 124 670T204 734T309 757Q367 757 409 734T475 673T499 589Q499 541 477
504T423 435T359 375Q324 342 300 306T267 224L265 214H186ZM158 0L174 110H254L238 0H158Z" />
<glyph unicode="@" horiz-adv-x="931" d="M446 -207Q362 -207 291 -178T168 -97T87 25T58 177Q58 269 91 349T183 490T323 585T497 620Q584 620 656 590T780 506T861 383T890 237Q890 169 868 116T807 31T712 0Q680 0 652 11T606 44T583 96L598 83Q581 56 556
38T501 10T438 0Q382 0 339 25T272 95T247 196Q247 259 276 311T355 395T468 427Q517 427 557 407T620 351L612 339L624 417H689L652 161Q647 126 655 106T680 78T715 70Q762 70 788 114T815 233Q815 326 776 397T665 509T499 550Q421 550 354 522T238 443T161
326T133 184Q133 92 173 20T285 -95T453 -137Q497 -137 540 -128T619 -99L646 -159Q603 -182 552 -194T446 -207ZM445 70Q486 70 518 91T570 147T590 226Q590 283 555 319T465 355Q423 355 391 334T341 279T322 203Q322 145 357 108T445 70Z" />
<glyph unicode="A" horiz-adv-x="652" d="M-27 0L349 745H435L603 0H522L483 182H151L61 0H-27ZM188 257H467L375 685L399 682L188 257Z" />
<glyph unicode="B" horiz-adv-x="700" d="M51 0L155 745H455Q543 745 593 699T644 573Q644 533 629 497T586 434T519 390L517 412Q575 390 606 343T638 239Q638 169 605 115T514 31T378 0H51ZM141 75H386Q437 75 476 95T536 151T558 234Q558 290 520 324T416 358H181L141
75ZM191 430H416Q459 430 492 448T544 498T563 570Q563 618 530 644T441 670H225L191 430Z" />
<glyph unicode="C" horiz-adv-x="796" d="M417 -12Q347 -12 286 12T179 82T107 193T81 342Q81 429 110 504T191 636T313 725T466 757Q545 757 604 730T702 659T756 570L679 539Q655 604 601 643T465 682Q399 682 344 657T247 585T184 477T161 342Q161 258 193
195T284 98T418 63Q501 63 561 102T655 207L728 172Q707 126 663 84T556 15T417 -12Z" />
<glyph unicode="D" horiz-adv-x="745" d="M51 0L155 745H387Q489 745 562 703T676 586T716 415Q716 324 689 248T609 117T482 31T314 0H51ZM141 75H317Q387 75 444 99T544 167T609 273T632 407Q632 488 602 547T514 638T379 670H225L141 75Z" />
<glyph unicode="E" horiz-adv-x="613" d="M51 0L155 745H635L625 670H225L188 411H568L558 336H178L141 75H541L531 0H51Z" />
<glyph unicode="F" horiz-adv-x="582" d="M51 0L155 745H615L605 670H225L188 411H538L528 336H178L131 0H51Z" />
<glyph unicode="G" horiz-adv-x="827" d="M415 -12Q343 -12 282 13T176 85T106 197T81 343Q81 432 111 507T195 639T318 726T468 757Q545 757 604 730T702 661T756 571L682 536Q659 604 603 643T465 682Q398 682 342 656T246 584T183 477T161 346Q161 260 194
197T286 98T423 63Q497 63 556 95T652 183T698 310L703 351L734 315H438L447 385H785L779 323Q772 250 742 189T662 82T550 13T415 -12Z" />
<glyph unicode="H" horiz-adv-x="737" d="M51 0L155 745H235L188 410H588L635 745H715L611 0H531L578 335H178L131 0H51Z" />
<glyph unicode="I" horiz-adv-x="257" d="M51 0L155 745H235L131 0H51Z" />
<glyph unicode="J" horiz-adv-x="383" d="M18 0L29 80H59Q118 80 158 113T206 205L282 745H362L286 205Q278 142 247 96T168 25T58 0H18Z" />
<glyph unicode="K" horiz-adv-x="655" d="M51 0L155 745H235L174 310L154 319L589 745H692L343 403L355 460L606 0H516L311 371L162 225L131 0H51Z" />
<glyph unicode="L" horiz-adv-x="532" d="M51 0L155 745H235L141 75H471L461 0H51Z" />
<glyph unicode="M" horiz-adv-x="837" d="M51 0L155 745H225L444 339H403L745 745H815L711 0H631L720 637L750 627L415 230H411L198 627L220 637L131 0H51Z" />
<glyph unicode="N" horiz-adv-x="737" d="M51 0L155 745H225L569 118H547L635 745H715L611 0H541L197 631H219L131 0H51Z" />
<glyph unicode="O" horiz-adv-x="881" d="M430 -12Q356 -12 293 14T182 87T108 200T81 345Q81 430 111 504T195 636T321 725T479 757Q554 757 617 731T728 658T802 545T829 400Q829 315 799 241T714 109T587 20T430 -12ZM431 63Q500 63 558 90T659 164T725 271T749
398Q749 478 716 542T622 644T479 682Q410 682 352 655T251 581T185 474T161 347Q161 268 195 204T289 101T431 63Z" />
<glyph unicode="P" horiz-adv-x="642" d="M51 0L155 745H399Q467 745 517 718T594 643T621 528Q621 460 588 406T497 321T359 290H171L131 0H51ZM182 365H363Q416 365 456 386T518 445T541 530Q541 596 502 633T395 670H225L182 365Z" />
<glyph unicode="Q" horiz-adv-x="881" d="M430 -12Q356 -12 293 14T182 87T108 200T81 345Q81 430 111 504T195 636T321 725T479 757Q554 757 617 731T728 658T802 545T829 400Q829 315 799 241T714 109T587 20T430 -12ZM431 63Q500 63 558 90T659 164T725 271T749
398Q749 478 716 542T622 644T479 682Q410 682 352 655T251 581T185 474T161 347Q161 268 195 204T289 101T431 63ZM609 -90L399 298H484L694 -90H609Z" />
<glyph unicode="R" horiz-adv-x="642" d="M51 0L155 745H399Q467 745 517 718T594 643T621 528Q621 472 599 426T537 347T441 300L571 0H482L344 323L394 290H171L131 0H51ZM182 365H363Q416 365 456 386T518 445T541 530Q541 596 502 633T395 670H225L182 365Z" />
<glyph unicode="S" horiz-adv-x="647" d="M311 -12Q244 -12 189 13T95 84T44 190L118 213Q135 137 187 99T317 60Q373 60 411 78T470 128T490 199Q490 243 464 271T388 315L258 355Q188 377 151 425T113 537Q113 597 144 647T230 727T357 757Q423 757 474 732T558
667T602 577L530 553Q515 615 470 650T357 685Q309 685 272 667T213 618T192 544Q192 504 217 473T296 424L410 389Q490 364 530 316T570 203Q570 147 539 98T451 18T311 -12Z" />
<glyph unicode="T" horiz-adv-x="513" d="M180 0L274 670H68L78 745H568L558 670H354L260 0H180Z" />
<glyph unicode="U" horiz-adv-x="700" d="M319 -12Q238 -12 182 21T99 113T82 245L152 745H233L163 243Q156 189 173 149T229 86T323 63Q378 63 422 85T496 148T533 243L603 745H682L611 241Q601 167 562 110T460 21T319 -12Z" />
<glyph unicode="V" horiz-adv-x="652" d="M246 0L78 745H158L303 71H286L620 745H708L330 0H246Z" />
<glyph unicode="W" horiz-adv-x="984" d="M188 0L78 745H157L249 78H230L517 745H600L696 78H675L957 745H1040L722 0H637L540 670H560L273 0H188Z" />
<glyph unicode="X" horiz-adv-x="597" d="M-27 0L268 380L85 745H169L337 407L300 410L547 745H643L362 371L548 0H464L294 343L332 339L67 0H-27Z" />
<glyph unicode="Y" horiz-adv-x="623" d="M235 0L283 346L78 745H162L343 396L311 400L584 745H679L364 346L316 0H235Z" />
<glyph unicode="Z" horiz-adv-x="585" d="M-15 0L-8 54L499 670H104L114 745H620L613 691L106 75H535L525 0H-15Z" />
<glyph unicode="[" horiz-adv-x="316" d="M31 -140L155 745H355L346 675H226L121 -70H241L231 -140H31Z" />
<glyph unicode="\" horiz-adv-x="425" d="M284 -120L62 705H145L367 -120H284Z" />
<glyph unicode="]" horiz-adv-x="315" d="M-30 -140L-20 -70H100L205 675H85L94 745H294L170 -140H-30Z" />
<glyph unicode="^" horiz-adv-x="607" d="M122 425L335 745H405L530 425H447L350 684H384L212 425H122Z" />
<glyph unicode="_" horiz-adv-x="598" d="M26 -70L36 0H486L476 -70H26Z" />
<glyph unicode="`" horiz-adv-x="352" d="M268 640L176 790H279L344 640H268Z" />
<glyph unicode="a" horiz-adv-x="573" d="M209 -12Q165 -12 126 4T63 52T38 134Q38 179 60 215T125 275T226 308L441 343L434 275L240 243Q183 233 151 206T118 138Q118 101 145 79T219 56Q269 56 311 80T381 144T415 234L432 359Q438 399 422 425T378 463T316
476Q265 476 226 451T163 386L98 427Q117 461 150 488T228 532T321 548Q379 548 424 524T492 456T508 356L458 0H382L397 107L410 94Q392 63 361 39T291 2T209 -12Z" />
<glyph unicode="b" horiz-adv-x="666" d="M328 -12Q258 -12 201 20T117 110L132 120L116 0H40L146 757H222L174 416L149 438Q184 489 239 518T363 548Q438 548 494 514T580 421T611 289Q611 228 590 174T531 77T441 12T328 -12ZM326 63Q385 63 431 94T504 176T531
287Q531 341 509 383T447 449T354 473Q295 473 249 443T176 362T150 253Q150 198 173 155T235 88T326 63Z" />
<glyph unicode="c" horiz-adv-x="612" d="M301 -12Q229 -12 174 22T87 115T56 249Q56 312 77 366T137 462T227 525T338 548Q390 548 433 531T509 482T556 410L487 377Q470 420 431 446T339 473Q280 473 234 442T162 359T136 249Q136 195 158 153T219 87T307 63Q361
63 404 90T471 163L537 124Q516 84 481 54T399 6T301 -12Z" />
<glyph unicode="d" horiz-adv-x="669" d="M302 -12Q230 -12 174 21T87 113T55 247Q55 309 76 363T135 459T224 524T337 548Q411 548 464 517T546 432L536 416L583 757H659L554 0H479L495 120L517 108Q486 50 428 19T302 -12ZM307 63Q366 63 413 94T489 176T517
286Q517 340 494 382T431 448T340 473Q281 473 235 442T162 360T135 247Q135 194 157 153T218 87T307 63Z" />
<glyph unicode="e" horiz-adv-x="617" d="M305 -12Q233 -12 177 21T89 114T56 249Q56 310 76 364T134 459T222 524T332 548Q406 548 458 514T537 426T564 310Q564 294 561 275T556 245H103L108 315H518L480 286Q494 339 477 382T421 452T331 478Q267 478 223 447T157
361T134 232Q134 179 158 140T221 79T306 58Q365 58 407 86T478 157L541 121Q522 85 487 55T406 6T305 -12Z" />
<glyph unicode="f" horiz-adv-x="396" d="M94 0L158 461H52L63 536H169L175 576Q184 637 214 677T285 737T370 757Q384 757 397 756T421 752L416 684Q409 686 398 686T382 687Q333 687 296 662T250 572L245 536H376L365 461H234L170 0H94Z" />
<glyph unicode="g" horiz-adv-x="663" d="M270 -220Q212 -220 167 -203T93 -155T50 -86L120 -57Q132 -92 170 -118T278 -145Q323 -145 365 -128T437 -77T474 12L492 140L514 128Q483 70 426 39T302 8Q235 8 179 39T90 127T57 259Q57 318 78 370T137 463T227 525T338
548Q407 548 459 518T541 436L531 416L547 536H623L550 10Q541 -59 501 -111T401 -191T270 -220ZM308 83Q364 83 410 112T485 190T513 293Q513 344 491 385T430 449T340 473Q286 473 240 445T165 370T137 262Q137 211 159 171T221 107T308 83Z" />
<glyph unicode="h" horiz-adv-x="574" d="M40 0L146 757H221L176 432L159 438Q185 490 234 519T342 548Q400 548 442 521T505 446T517 336L470 0H394L440 331Q449 396 417 434T326 473Q285 473 250 454T191 400T160 317L116 0H40Z" />
<glyph unicode="i" horiz-adv-x="231" d="M40 0L115 536H191L116 0H40ZM129 635L144 745H220L205 635H129Z" />
<glyph unicode="j" horiz-adv-x="232" d="M-81 -220Q-89 -220 -104 -219T-127 -215L-121 -147Q-110 -148 -100 -149T-81 -150Q-39 -150 -6 -124T35 -48L117 536H193L110 -52Q102 -107 75 -144T7 -201T-81 -220ZM131 635L146 745H222L207 635H131Z" />
<glyph unicode="k" horiz-adv-x="547" d="M39 0L145 757H221L147 227L109 232L452 536H556L315 321L498 0H413L240 297L284 293L108 135L142 197L115 0H39Z" />
<glyph unicode="l" horiz-adv-x="231" d="M40 0L146 757H222L116 0H40Z" />
<glyph unicode="m" horiz-adv-x="909" d="M40 0L115 536H190L177 437L168 452Q196 498 241 523T337 548Q400 548 445 513T503 419L483 420Q510 484 564 516T678 548Q734 548 776 521T839 446T852 336L805 0H730L776 331Q782 375 770 406T731 455T666 473Q629 473
595 456T536 407T506 330L460 0H385L431 331Q437 375 425 406T386 455T321 473Q282 473 248 454T190 400T159 317L115 0H40Z" />
<glyph unicode="n" horiz-adv-x="574" d="M40 0L115 536H190L176 432L159 438Q185 490 234 519T342 548Q400 548 442 521T505 446T517 336L470 0H395L441 331Q450 396 418 434T326 473Q284 473 249 454T190 400T159 317L115 0H40Z" />
<glyph unicode="o" horiz-adv-x="658" d="M314 -12Q242 -12 184 21T91 115T56 253Q56 314 78 367T139 461T231 525T344 548Q418 548 476 515T569 422T603 286Q603 225 581 171T518 76T426 11T314 -12ZM313 63Q372 63 419 94T495 176T523 287Q523 341 500 383T437
449T345 473Q287 473 240 443T164 362T136 251Q136 197 159 155T222 88T313 63Z" />
<glyph unicode="p" horiz-adv-x="666" d="M12 -200L115 536H191L174 416L149 438Q184 489 239 518T363 548Q438 548 494 514T580 421T611 289Q611 228 590 174T531 77T441 12T328 -12Q258 -12 201 20T117 110L132 120L88 -200H12ZM326 63Q385 63 431 94T504 176T531
287Q531 341 509 383T447 449T354 473Q295 473 249 443T176 362T150 253Q150 198 173 155T235 88T326 63Z" />
<glyph unicode="q" horiz-adv-x="670" d="M452 -200L495 120L517 108Q486 50 428 19T302 -12Q230 -12 174 21T87 113T55 247Q55 309 76 363T135 459T224 524T337 548Q411 548 464 517T546 432L536 416L553 536H629L527 -200H452ZM307 63Q366 63 413 94T489 176T517
286Q517 340 494 382T431 448T340 473Q281 473 235 442T162 360T135 247Q135 194 157 153T218 87T307 63Z" />
<glyph unicode="r" horiz-adv-x="338" d="M40 0L115 536H191L179 448L169 461Q194 499 235 521T332 543H366L355 468H308Q250 468 211 431T160 320L116 0H40Z" />
<glyph unicode="s" horiz-adv-x="510" d="M235 -12Q184 -12 141 6T68 57T25 135L90 161Q108 112 148 84T242 56Q293 56 326 82T359 149Q359 176 340 194T279 224L204 245Q142 262 110 297T78 382Q78 428 104 465T174 525T271 548Q342 548 394 511T462 412L396
386Q380 432 347 456T267 480Q218 480 187 455T156 392Q156 365 172 347T226 318L312 292Q372 274 404 238T437 152Q437 106 411 69T338 10T235 -12Z" />
<glyph unicode="t" horiz-adv-x="390" d="M248 -6Q175 -6 141 37T117 158L159 461H60L71 536H94Q128 536 152 559T181 617L187 660H263L246 536H363L352 461H235L192 154Q188 127 192 107T214 75T263 64Q273 64 284 65T303 67L297 -2Q285 -5 271 -5T248 -6Z" />
<glyph unicode="u" horiz-adv-x="574" d="M232 -12Q175 -12 132 15T69 93T58 210L104 536H179L132 205Q126 162 139 130T180 81T248 63Q290 63 325 82T383 136T414 219L459 536H534L459 0H384L398 104L415 98Q388 46 340 17T232 -12Z" />
<glyph unicode="v" horiz-adv-x="517" d="M182 0L49 536H129L239 66H213L456 536H544L257 0H182Z" />
<glyph unicode="w" horiz-adv-x="797" d="M157 0L49 536H129L216 67H186L397 536H472L550 67H519L737 536H824L564 0H489L415 459H439L232 0H157Z" />
<glyph unicode="x" horiz-adv-x="490" d="M-27 0L201 272L56 536H142L271 301L228 305L418 536H517L292 265L439 0H352L224 236L261 232L69 0H-27Z" />
<glyph unicode="y" horiz-adv-x="536" d="M23 -220Q6 -220 -11 -217T-43 -208L-37 -139Q-27 -140 -13 -142T17 -145Q51 -145 74 -136T118 -104T160 -44L206 34L196 -32L49 537H128L247 67H222L478 537H563L233 -70Q212 -109 183 -143T114 -199T23 -220Z" />
<glyph unicode="z" horiz-adv-x="450" d="M-15 0L-7 65L374 488L386 461H66L77 536H463L455 471L75 48L63 75H400L390 0H-15Z" />
<glyph unicode="{" horiz-adv-x="318" d="M199 -140Q135 -140 101 -102T75 1L102 194Q107 227 94 247T48 267H20L30 337H58Q90 337 109 357T132 410L159 604Q168 668 213 706T323 745H357L347 675H313Q284 675 264 656T239 604L214 414Q210 381 194 352T149 302Q170
282 178 253T182 192L154 1Q150 -30 164 -50T209 -70H243L233 -140H199Z" />
<glyph unicode="|" horiz-adv-x="301" d="M46 -190L192 845H272L126 -190H46Z" />
<glyph unicode="}" horiz-adv-x="317" d="M-30 -140L-20 -70H14Q44 -70 64 -51T89 1L114 192Q119 224 135 253T178 302Q157 322 149 350T145 414L173 604Q178 636 163 655T119 675H85L94 745H128Q193 745 227 707T253 604L225 410Q221 377 233 357T279 337H307L297
267H269Q237 267 219 247T195 194L168 1Q159 -63 114 -101T4 -140H-30Z" />
<glyph unicode="~" horiz-adv-x="607" d="M399 220Q366 220 344 230T304 255T269 279T227 290Q196 290 174 272T142 221H75Q83 284 125 322T220 360Q254 360 276 350T316 325T350 301T392 290Q419 290 440 307T472 359H539Q531 296 492 258T399 220Z" />
<glyph unicode="&#xa0;" horiz-adv-x="170" />
<glyph unicode="&#xa1;" horiz-adv-x="283" d="M35 -209L114 322H184L115 -209H35ZM124 426L139 536H219L204 426H124Z" />
<glyph unicode="&#xa2;" horiz-adv-x="611" d="M315 93Q243 93 188 127T101 220T70 354Q70 417 91 471T151 567T241 630T352 653Q404 653 447 636T523 587T570 515L501 482Q484 525 445 551T353 578Q294 578 248 547T176 464T150 354Q150 300 172 258T233 192T321
168Q375 168 418 195T485 268L551 229Q530 189 495 159T413 111T315 93ZM244 0L349 745H420L315 0H244Z" />
<glyph unicode="&#xa3;" horiz-adv-x="644" d="M8 0L17 70H117L184 542Q193 607 228 655T317 730T439 757Q501 757 546 733T617 666T641 561L567 549Q569 617 534 652T437 687Q366 687 320 647T264 538L198 70H536L527 0H8ZM55 346L65 411H414L404 346H55Z" />
<glyph unicode="&#xa4;" horiz-adv-x="602" d="M86 30L42 79L126 155Q113 176 107 200T100 249Q100 284 113 318T150 383L82 459L136 508L204 432Q232 450 262 459T322 469Q351 469 380 460T432 432L516 508L560 459L476 383Q489 361 495 338T502 289Q502 254
489 219T452 155L520 79L466 30L398 106Q372 89 342 79T280 69Q252 69 223 78T170 106L86 30ZM288 145Q325 145 356 164T406 214T426 282Q426 314 411 339T371 379T314 394Q277 394 246 375T195 324T175 256Q175 225 190 200T230 160T288 145Z" />
<glyph unicode="&#xa5;" horiz-adv-x="623" d="M235 0L283 346L78 745H162L343 396L311 400L584 745H679L364 346L316 0H235ZM142 308L151 373H500L491 308H142ZM120 153L129 218H478L469 153H120Z" />
<glyph unicode="&#xa6;" horiz-adv-x="301" d="M133 428L192 845H272L213 428H133ZM46 -190L105 228H185L126 -190H46Z" />
<glyph unicode="&#xa7;" horiz-adv-x="529" d="M227 -105Q146 -105 90 -64T13 47L81 78Q101 26 141 -4T234 -35Q271 -35 300 -22T347 13T365 64Q365 90 351 106T316 131T279 145L200 169Q131 190 100 225T68 307Q68 357 95 397T170 462T275 486L267 436Q234 436
208 422T166 384T150 328Q150 301 162 284T193 259T225 245L316 217Q377 198 411 161T445 72Q445 22 417 -18T339 -81T227 -105ZM256 166L261 216Q298 216 328 231T375 271T393 327Q393 355 379 372T345 400T308 416L228 440Q158 461 128 497T97 578Q97 628 124
668T199 733T304 757Q374 757 428 720T500 617L432 586Q415 633 378 660T293 687Q260 687 234 675T193 641T178 591Q178 566 190 551T221 529T253 516L344 488Q405 469 439 432T473 343Q473 293 445 253T367 190T256 166Z" />
<glyph unicode="&#xa8;" horiz-adv-x="436" d="M155 640L169 740H269L255 640H155ZM335 640L349 740H449L435 640H335Z" />
<glyph unicode="&#xa9;" horiz-adv-x="898" d="M439 -12Q362 -12 296 15T181 92T105 206T78 347Q78 431 110 505T200 635T331 724T489 757Q566 757 631 730T746 653T822 538T849 398Q849 313 816 239T726 109T595 20T439 -12ZM440 58Q509 58 570 84T678 157T752
265T779 398Q779 459 757 511T696 603T604 665T488 687Q418 687 357 661T248 588T175 480T148 348Q148 266 186 200T290 96T440 58ZM457 163Q401 163 358 188T291 257T267 358Q267 423 296 473T374 553T483 582Q526 582 560 567T616 528T647 476L584 448Q574 477
549 497T482 518Q441 518 408 498T357 441T338 357Q338 299 370 263T458 227Q498 227 528 247T572 299L633 267Q621 239 596 216T535 178T457 163Z" />
<glyph unicode="&#xaa;" horiz-adv-x="456" d="M207 361Q156 361 120 387T84 464Q84 498 101 523T149 565T222 588L360 611L354 551L233 530Q202 525 182 509T161 468Q161 446 177 433T221 420Q253 420 278 435T321 474T342 529L354 621Q359 656 336 673T282 690Q248
690 222 673T182 629L122 664Q142 705 187 730T287 755Q330 755 364 738T416 689T428 617L393 369H322L331 439L348 434Q325 399 288 380T207 361Z" />
<glyph unicode="&#xab;" horiz-adv-x="546" d="M154 79L29 269L209 459H304L118 261L238 79H154ZM394 79L269 269L449 459H544L358 261L478 79H394Z" />
<glyph unicode="&#xac;" horiz-adv-x="607" d="M447 40L471 213H46L56 288H556L522 40H447Z" />
<glyph unicode="&#xad;" horiz-adv-x="498" d="M69 233L79 303H429L419 233H69Z" />
<glyph unicode="&#xae;" horiz-adv-x="641" d="M341 272Q273 272 218 304T132 390T100 512Q100 568 121 617T181 703T268 762T373 784Q441 784 495 752T582 666T614 544Q614 489 592 440T532 353T445 294T341 272ZM341 330Q399 330 448 359T526 437T556 545Q556
597 532 637T467 702T373 726Q315 726 266 697T187 620T157 512Q157 460 181 419T247 354T341 330ZM240 394L278 664H377Q416 664 441 644T467 583Q467 553 454 532T418 500L471 394H407L361 489H313L300 394H240ZM320 541H369Q386 541 398 553T410 581Q410 595
400 603T375 612H330L320 541Z" />
<glyph unicode="&#xaf;" horiz-adv-x="440" d="M158 660L168 730H438L428 660H158Z" />
<glyph unicode="&#xb0;" horiz-adv-x="483" d="M276 440Q233 440 200 459T147 511T127 586Q127 634 150 672T212 734T299 757Q342 757 375 738T428 686T448 610Q448 563 425 525T363 463T276 440ZM280 502Q310 502 333 516T371 553T385 606Q385 646 358 670T293
695Q250 695 220 665T190 590Q190 550 216 526T280 502Z" />
<glyph unicode="&#xb1;" horiz-adv-x="607" d="M250 145L274 318H61L72 393H285L309 565H384L361 393H572L561 318H350L326 145H250ZM16 0L27 75H527L516 0H16Z" />
<glyph unicode="&#xb2;" horiz-adv-x="441" d="M48 223L53 278L213 432Q261 478 290 508T332 562T346 614Q346 646 325 665T268 684Q228 684 198 661T152 596L85 618Q105 680 155 716T270 753Q315 753 349 737T403 691T423 620Q423 583 408 552T366 490T303 425L159
289H401L392 223H48Z" />
<glyph unicode="&#xb3;" horiz-adv-x="435" d="M215 215Q173 215 137 230T76 272T44 337L112 363Q123 323 152 303T219 283Q269 283 301 313T334 392Q334 436 308 460T237 485Q227 485 214 483T190 477L177 513L333 679H106L115 745H431L424 682L273 520L268 543Q312
543 344 523T393 470T411 394Q411 342 385 302T314 238T215 215Z" />
<glyph unicode="&#xb4;" horiz-adv-x="352" d="M155 640L264 790H367L231 640H155Z" />
<glyph unicode="&#xb5;" horiz-adv-x="574" d="M9 -140L104 536H180L133 205Q127 162 139 130T180 81T248 63Q290 63 325 82T383 136T414 219L459 536H534L459 0H384L397 102L407 85Q380 39 334 14T232 -12Q189 -12 154 4T94 48L113 67L85 -140H9Z" />
<glyph unicode="&#xb6;" horiz-adv-x="398" d="M156 -100L229 423Q184 423 151 444T102 503T92 584Q98 629 124 665T190 723T274 745H354L236 -100H156Z" />
<glyph unicode="&#xb7;" horiz-adv-x="286" d="M95 213L111 323H191L175 213H95Z" />
<glyph unicode="&#xb8;" horiz-adv-x="382" d="M137 -230Q108 -230 81 -220T38 -193L66 -140Q80 -154 98 -162T135 -170Q158 -170 174 -157T190 -123Q190 -102 167 -91T100 -74L136 10H190L170 -38Q216 -48 239 -69T262 -122Q262 -152 245 -176T200 -215T137 -230Z" />
<glyph unicode="&#xb9;" horiz-adv-x="304" d="M114 223L178 678H79L88 745H265L192 223H114Z" />
<glyph unicode="&#xba;" horiz-adv-x="505" d="M282 361Q230 361 188 385T121 451T96 547Q96 605 124 652T199 727T304 755Q357 755 399 732T465 666T490 570Q490 512 462 465T387 389T282 361ZM282 430Q319 430 348 449T395 500T413 571Q413 621 382 653T304
686Q267 686 238 667T191 617T173 546Q173 513 187 487T225 445T282 430Z" />
<glyph unicode="&#xbb;" horiz-adv-x="546" d="M242 79L428 277L308 459H392L517 269L337 79H242ZM2 79L188 277L68 459H152L277 269L97 79H2Z" />
<glyph unicode="&#xbc;" horiz-adv-x="887" d="M110 328L159 683H80L88 745H241L183 328H110ZM85 0L635 745H722L172 0H85ZM680 0L694 93H499L507 153L735 417H810L773 153H832L823 93H764L752 0H680ZM557 127L549 153H702L731 360L751 354L557 127Z" />
<glyph unicode="&#xbd;" horiz-adv-x="859" d="M110 328L159 683H80L88 745H241L183 328H110ZM85 0L635 745H722L172 0H85ZM501 0L506 54L631 173Q670 210 692 232T723 272T733 309Q733 332 718 345T677 359Q649 359 627 342T593 295L531 317Q547 367 588 395T681
424Q735 424 770 395T806 315Q806 284 793 258T758 210T714 165L603 62H788L779 0H501Z" />
<glyph unicode="&#xbe;" horiz-adv-x="976" d="M196 321Q163 321 133 333T83 368T57 422L122 445Q130 416 151 401T200 386Q237 386 260 409T284 466Q284 497 265 514T213 532Q204 532 192 530T171 524L158 558L281 684H107L115 745H373L366 687L245 561L243 586Q296
585 326 552T356 468Q356 425 334 392T276 340T196 321ZM174 0L724 745H811L261 0H174ZM769 0L783 93H588L596 153L824 417H899L862 153H921L912 93H853L841 0H769ZM646 127L638 153H791L820 360L840 354L646 127Z" />
<glyph unicode="&#xbf;" horiz-adv-x="500" d="M191 -221Q134 -221 91 -198T25 -136T1 -53Q1 -5 23 32T77 101T141 161Q176 194 200 230T233 312L235 322H314L312 312Q299 246 268 199T191 111Q166 89 141 66T98 15T81 -49Q81 -89 111 -120T196 -151Q252 -151
294 -116T352 -23L422 -38Q409 -93 376 -134T296 -198T191 -221ZM246 426L262 536H342L326 426H246Z" />
<glyph unicode="&#xc0;" horiz-adv-x="652" d="M-27 0L349 745H435L603 0H522L483 182H151L61 0H-27ZM188 257H467L375 685L399 682L188 257ZM369 849L277 999H380L445 849H369Z" />
<glyph unicode="&#xc1;" horiz-adv-x="652" d="M-27 0L349 745H435L603 0H522L483 182H151L61 0H-27ZM188 257H467L375 685L399 682L188 257ZM369 849L478 999H581L445 849H369Z" />
<glyph unicode="&#xc2;" horiz-adv-x="652" d="M-27 0L349 745H435L603 0H522L483 182H151L61 0H-27ZM188 257H467L375 685L399 682L188 257ZM220 849L362 999H446L545 849H463L401 940L314 849H220Z" />
<glyph unicode="&#xc3;" horiz-adv-x="652" d="M-27 0L349 745H435L603 0H522L483 182H151L61 0H-27ZM188 257H467L375 685L399 682L188 257ZM466 849Q440 849 426 858T402 880T382 902T355 912Q340 912 328 899T311 853H249Q255 893 271 920T311 962T364 976Q390
976 404 967T428 945T448 923T475 913Q494 913 506 928T523 972H584Q576 916 544 883T466 849Z" />
<glyph unicode="&#xc4;" horiz-adv-x="652" d="M-27 0L349 745H435L603 0H522L483 182H151L61 0H-27ZM188 257H467L375 685L399 682L188 257ZM268 849L282 949H382L368 849H268ZM448 849L462 949H562L548 849H448Z" />
<glyph unicode="&#xc5;" horiz-adv-x="652" d="M-27 0L349 745H435L603 0H522L483 182H151L61 0H-27ZM188 257H467L375 685L399 682L188 257ZM405 829Q365 829 337 852T309 919Q309 954 326 982T371 1027T435 1044Q476 1044 503 1020T531 953Q531 919 514 891T469
846T405 829ZM413 883Q438 883 455 901T473 945Q473 965 461 977T428 989Q403 989 386 971T368 927Q368 907 380 895T413 883Z" />
<glyph unicode="&#xc6;" horiz-adv-x="985" d="M-27 0L349 745H1007L997 670H597L560 411H940L930 336H550L513 75H913L903 0H423L448 182H151L61 0H-27ZM188 257H459L517 670H393L188 257Z" />
<glyph unicode="&#xc7;" horiz-adv-x="796" d="M417 -12Q347 -12 286 12T179 82T107 193T81 342Q81 429 110 504T191 636T313 725T466 757Q545 757 604 730T702 659T756 570L679 539Q655 604 601 643T465 682Q399 682 344 657T247 585T184 477T161 342Q161 258
193 195T284 98T418 63Q501 63 561 102T655 207L728 172Q707 126 663 84T556 15T417 -12ZM397 -230Q368 -230 341 -220T298 -193L326 -140Q340 -154 358 -162T395 -170Q418 -170 434 -157T450 -123Q450 -102 427 -91T360 -74L396 10H450L430 -38Q476 -48 499 -69T522
-122Q522 -152 505 -176T460 -215T397 -230Z" />
<glyph unicode="&#xc8;" horiz-adv-x="613" d="M51 0L155 745H635L625 670H225L188 411H568L558 336H178L141 75H541L531 0H51ZM371 849L279 999H382L447 849H371Z" />
<glyph unicode="&#xc9;" horiz-adv-x="613" d="M51 0L155 745H635L625 670H225L188 411H568L558 336H178L141 75H541L531 0H51ZM371 849L480 999H583L447 849H371Z" />
<glyph unicode="&#xca;" horiz-adv-x="613" d="M51 0L155 745H635L625 670H225L188 411H568L558 336H178L141 75H541L531 0H51ZM222 849L364 999H448L547 849H465L403 940L316 849H222Z" />
<glyph unicode="&#xcb;" horiz-adv-x="613" d="M51 0L155 745H635L625 670H225L188 411H568L558 336H178L141 75H541L531 0H51ZM270 849L284 949H384L370 849H270ZM450 849L464 949H564L550 849H450Z" />
<glyph unicode="&#xcc;" horiz-adv-x="257" d="M51 0L155 745H235L131 0H51ZM172 849L80 999H183L248 849H172Z" />
<glyph unicode="&#xcd;" horiz-adv-x="257" d="M51 0L155 745H235L131 0H51ZM172 849L281 999H384L248 849H172Z" />
<glyph unicode="&#xce;" horiz-adv-x="257" d="M51 0L155 745H235L131 0H51ZM23 849L165 999H249L348 849H266L204 940L117 849H23Z" />
<glyph unicode="&#xcf;" horiz-adv-x="257" d="M51 0L155 745H235L131 0H51ZM71 849L85 949H185L171 849H71ZM251 849L265 949H365L351 849H251Z" />
<glyph unicode="&#xd0;" horiz-adv-x="745" d="M38 338L48 408H348L338 338H38ZM51 0L155 745H387Q489 745 562 703T676 586T716 415Q716 324 689 248T609 117T482 31T314 0H51ZM141 75H317Q387 75 444 99T544 167T609 273T632 407Q632 488 602 547T514 638T379
670H225L141 75Z" />
<glyph unicode="&#xd1;" horiz-adv-x="737" d="M51 0L155 745H225L569 118H547L635 745H715L611 0H541L197 631H219L131 0H51ZM509 849Q483 849 469 858T445 880T425 902T398 912Q383 912 371 899T354 853H292Q298 893 314 920T354 962T407 976Q433 976 447 967T471
945T491 923T518 913Q537 913 549 928T566 972H627Q619 916 587 883T509 849Z" />
<glyph unicode="&#xd2;" horiz-adv-x="881" d="M430 -12Q356 -12 293 14T182 87T108 200T81 345Q81 430 111 504T195 636T321 725T479 757Q554 757 617 731T728 658T802 545T829 400Q829 315 799 241T714 109T587 20T430 -12ZM431 63Q500 63 558 90T659 164T725
271T749 398Q749 478 716 542T622 644T479 682Q410 682 352 655T251 581T185 474T161 347Q161 268 195 204T289 101T431 63ZM484 849L392 999H495L560 849H484Z" />
<glyph unicode="&#xd3;" horiz-adv-x="881" d="M430 -12Q356 -12 293 14T182 87T108 200T81 345Q81 430 111 504T195 636T321 725T479 757Q554 757 617 731T728 658T802 545T829 400Q829 315 799 241T714 109T587 20T430 -12ZM431 63Q500 63 558 90T659 164T725
271T749 398Q749 478 716 542T622 644T479 682Q410 682 352 655T251 581T185 474T161 347Q161 268 195 204T289 101T431 63ZM484 849L593 999H696L560 849H484Z" />
<glyph unicode="&#xd4;" horiz-adv-x="881" d="M430 -12Q356 -12 293 14T182 87T108 200T81 345Q81 430 111 504T195 636T321 725T479 757Q554 757 617 731T728 658T802 545T829 400Q829 315 799 241T714 109T587 20T430 -12ZM431 63Q500 63 558 90T659 164T725
271T749 398Q749 478 716 542T622 644T479 682Q410 682 352 655T251 581T185 474T161 347Q161 268 195 204T289 101T431 63ZM335 849L477 999H561L660 849H578L516 940L429 849H335Z" />
<glyph unicode="&#xd5;" horiz-adv-x="881" d="M430 -12Q356 -12 293 14T182 87T108 200T81 345Q81 430 111 504T195 636T321 725T479 757Q554 757 617 731T728 658T802 545T829 400Q829 315 799 241T714 109T587 20T430 -12ZM431 63Q500 63 558 90T659 164T725
271T749 398Q749 478 716 542T622 644T479 682Q410 682 352 655T251 581T185 474T161 347Q161 268 195 204T289 101T431 63ZM581 849Q555 849 541 858T517 880T497 902T470 912Q455 912 443 899T426 853H364Q370 893 386 920T426 962T479 976Q505 976 519 967T543
945T563 923T590 913Q609 913 621 928T638 972H699Q691 916 659 883T581 849Z" />
<glyph unicode="&#xd6;" horiz-adv-x="881" d="M430 -12Q356 -12 293 14T182 87T108 200T81 345Q81 430 111 504T195 636T321 725T479 757Q554 757 617 731T728 658T802 545T829 400Q829 315 799 241T714 109T587 20T430 -12ZM431 63Q500 63 558 90T659 164T725
271T749 398Q749 478 716 542T622 644T479 682Q410 682 352 655T251 581T185 474T161 347Q161 268 195 204T289 101T431 63ZM383 849L397 949H497L483 849H383ZM563 849L577 949H677L663 849H563Z" />
<glyph unicode="&#xd7;" horiz-adv-x="607" d="M106 0L53 58L242 224L106 382L165 435L301 277L487 440L540 382L353 218L495 53L436 0L294 165L106 0Z" />
<glyph unicode="&#xd8;" horiz-adv-x="881" d="M47 0L761 745H865L151 0H47ZM430 -12Q356 -12 293 14T182 87T108 200T81 345Q81 430 111 504T195 636T321 725T479 757Q554 757 617 731T728 658T802 545T829 400Q829 315 799 241T714 109T587 20T430 -12ZM431
63Q500 63 558 90T659 164T725 271T749 398Q749 478 716 542T622 644T479 682Q410 682 352 655T251 581T185 474T161 347Q161 268 195 204T289 101T431 63Z" />
<glyph unicode="&#xd9;" horiz-adv-x="700" d="M319 -12Q238 -12 182 21T99 113T82 245L152 745H233L163 243Q156 189 173 149T229 86T323 63Q378 63 422 85T496 148T533 243L603 745H682L611 241Q601 167 562 110T460 21T319 -12ZM393 849L301 999H404L469 849H393Z" />
<glyph unicode="&#xda;" horiz-adv-x="700" d="M319 -12Q238 -12 182 21T99 113T82 245L152 745H233L163 243Q156 189 173 149T229 86T323 63Q378 63 422 85T496 148T533 243L603 745H682L611 241Q601 167 562 110T460 21T319 -12ZM393 849L502 999H605L469 849H393Z" />
<glyph unicode="&#xdb;" horiz-adv-x="700" d="M319 -12Q238 -12 182 21T99 113T82 245L152 745H233L163 243Q156 189 173 149T229 86T323 63Q378 63 422 85T496 148T533 243L603 745H682L611 241Q601 167 562 110T460 21T319 -12ZM244 849L386 999H470L569 849H487L425
940L338 849H244Z" />
<glyph unicode="&#xdc;" horiz-adv-x="700" d="M319 -12Q238 -12 182 21T99 113T82 245L152 745H233L163 243Q156 189 173 149T229 86T323 63Q378 63 422 85T496 148T533 243L603 745H682L611 241Q601 167 562 110T460 21T319 -12ZM292 849L306 949H406L392 849H292ZM472
849L486 949H586L572 849H472Z" />
<glyph unicode="&#xdd;" horiz-adv-x="623" d="M235 0L283 346L78 745H162L343 396L311 400L584 745H679L364 346L316 0H235ZM355 849L464 999H567L431 849H355Z" />
<glyph unicode="&#xde;" horiz-adv-x="654" d="M43 0L147 745H227L207 600H391Q459 600 509 573T586 498T613 383Q613 315 580 261T489 176T351 145H143L123 0H43ZM154 220H355Q408 220 448 241T510 300T533 385Q533 451 494 488T387 525H196L154 220Z" />
<glyph unicode="&#xdf;" horiz-adv-x="605" d="M30 -150L127 542Q137 609 171 657T258 731T372 757Q430 757 472 737T538 679T562 592Q562 555 548 513T502 437T419 386L420 407Q480 384 511 341T543 236Q543 206 531 166T489 88T405 25T267 0H216L225 70H273Q330
70 367 86T425 128T454 182T463 234Q463 293 426 326T317 360H266L276 430H317Q365 430 397 447T447 489T473 541T481 585Q481 632 452 659T369 687Q327 687 291 669T232 617T202 538L106 -150H30Z" />
<glyph unicode="&#xe0;" horiz-adv-x="573" d="M209 -12Q165 -12 126 4T63 52T38 134Q38 179 60 215T125 275T226 308L441 343L434 275L240 243Q183 233 151 206T118 138Q118 101 145 79T219 56Q269 56 311 80T381 144T415 234L432 359Q438 399 422 425T378 463T316
476Q265 476 226 451T163 386L98 427Q117 461 150 488T228 532T321 548Q379 548 424 524T492 456T508 356L458 0H382L397 107L410 94Q392 63 361 39T291 2T209 -12ZM301 640L209 790H312L377 640H301Z" />
<glyph unicode="&#xe1;" horiz-adv-x="573" d="M209 -12Q165 -12 126 4T63 52T38 134Q38 179 60 215T125 275T226 308L441 343L434 275L240 243Q183 233 151 206T118 138Q118 101 145 79T219 56Q269 56 311 80T381 144T415 234L432 359Q438 399 422 425T378 463T316
476Q265 476 226 451T163 386L98 427Q117 461 150 488T228 532T321 548Q379 548 424 524T492 456T508 356L458 0H382L397 107L410 94Q392 63 361 39T291 2T209 -12ZM301 640L410 790H513L377 640H301Z" />
<glyph unicode="&#xe2;" horiz-adv-x="573" d="M209 -12Q165 -12 126 4T63 52T38 134Q38 179 60 215T125 275T226 308L441 343L434 275L240 243Q183 233 151 206T118 138Q118 101 145 79T219 56Q269 56 311 80T381 144T415 234L432 359Q438 399 422 425T378 463T316
476Q265 476 226 451T163 386L98 427Q117 461 150 488T228 532T321 548Q379 548 424 524T492 456T508 356L458 0H382L397 107L410 94Q392 63 361 39T291 2T209 -12ZM408 640L550 790H634L733 640H651L589 731L502 640H408Z" />
<glyph unicode="&#xe3;" horiz-adv-x="573" d="M209 -12Q165 -12 126 4T63 52T38 134Q38 179 60 215T125 275T226 308L441 343L434 275L240 243Q183 233 151 206T118 138Q118 101 145 79T219 56Q269 56 311 80T381 144T415 234L432 359Q438 399 422 425T378 463T316
476Q265 476 226 451T163 386L98 427Q117 461 150 488T228 532T321 548Q379 548 424 524T492 456T508 356L458 0H382L397 107L410 94Q392 63 361 39T291 2T209 -12ZM398 640Q372 640 358 649T334 671T314 693T287 703Q272 703 260 690T243 644H181Q187 684 203
711T243 753T296 767Q322 767 336 758T360 736T380 714T407 704Q426 704 438 719T455 763H516Q508 707 476 674T398 640Z" />
<glyph unicode="&#xe4;" horiz-adv-x="573" d="M209 -12Q165 -12 126 4T63 52T38 134Q38 179 60 215T125 275T226 308L441 343L434 275L240 243Q183 233 151 206T118 138Q118 101 145 79T219 56Q269 56 311 80T381 144T415 234L432 359Q438 399 422 425T378 463T316
476Q265 476 226 451T163 386L98 427Q117 461 150 488T228 532T321 548Q379 548 424 524T492 456T508 356L458 0H382L397 107L410 94Q392 63 361 39T291 2T209 -12ZM200 640L214 740H314L300 640H200ZM380 640L394 740H494L480 640H380Z" />
<glyph unicode="&#xe5;" horiz-adv-x="573" d="M209 -12Q165 -12 126 4T63 52T38 134Q38 179 60 215T125 275T226 308L441 343L434 275L240 243Q183 233 151 206T118 138Q118 101 145 79T219 56Q269 56 311 80T381 144T415 234L432 359Q438 399 422 425T378 463T316
476Q265 476 226 451T163 386L98 427Q117 461 150 488T228 532T321 548Q379 548 424 524T492 456T508 356L458 0H382L397 107L410 94Q392 63 361 39T291 2T209 -12ZM337 620Q297 620 269 643T241 710Q241 745 258 773T303 818T367 835Q408 835 435 811T463 744Q463
710 446 682T401 637T337 620ZM345 674Q370 674 387 692T405 736Q405 756 393 768T360 780Q335 780 318 762T300 718Q300 698 312 686T345 674Z" />
<glyph unicode="&#xe6;" horiz-adv-x="984" d="M209 -12Q165 -12 126 4T63 52T38 134Q38 179 60 215T125 275T226 308L430 341L432 359Q437 399 421 425T377 463T316 476Q265 476 226 451T163 386L98 427Q117 461 150 488T228 532T321 548Q365 548 402 534T465
493T502 431L479 433Q517 486 573 517T699 548Q773 548 825 514T904 426T931 310Q931 294 928 275T923 245H501Q501 187 523 145T584 81T673 58Q732 58 774 86T845 157L908 121Q889 85 854 55T773 6T672 -12Q602 -12 546 20T458 109L476 125L458 0H382L397 104L406
86Q386 56 356 34T288 0T209 -12ZM219 56Q269 56 311 80T381 144T415 234L420 273L240 243Q183 233 151 206T118 138Q118 101 145 79T219 56ZM509 315H852Q856 361 837 398T781 456T698 478Q647 478 609 458T545 402T509 315Z" />
<glyph unicode="&#xe7;" horiz-adv-x="612" d="M301 -12Q229 -12 174 22T87 115T56 249Q56 312 77 366T137 462T227 525T338 548Q390 548 433 531T509 482T556 410L487 377Q470 420 431 446T339 473Q280 473 234 442T162 359T136 249Q136 195 158 153T219 87T307
63Q361 63 404 90T471 163L537 124Q516 84 481 54T399 6T301 -12ZM282 -230Q253 -230 226 -220T183 -193L211 -140Q225 -154 243 -162T280 -170Q303 -170 319 -157T335 -123Q335 -102 312 -91T245 -74L281 10H335L315 -38Q361 -48 384 -69T407 -122Q407 -152 390
-176T345 -215T282 -230Z" />
<glyph unicode="&#xe8;" horiz-adv-x="617" d="M305 -12Q233 -12 177 21T89 114T56 249Q56 310 76 364T134 459T222 524T332 548Q406 548 458 514T537 426T564 310Q564 294 561 275T556 245H103L108 315H518L480 286Q494 339 477 382T421 452T331 478Q267 478
223 447T157 361T134 232Q134 179 158 140T221 79T306 58Q365 58 407 86T478 157L541 121Q522 85 487 55T406 6T305 -12ZM323 640L231 790H334L399 640H323Z" />
<glyph unicode="&#xe9;" horiz-adv-x="617" d="M305 -12Q233 -12 177 21T89 114T56 249Q56 310 76 364T134 459T222 524T332 548Q406 548 458 514T537 426T564 310Q564 294 561 275T556 245H103L108 315H518L480 286Q494 339 477 382T421 452T331 478Q267 478
223 447T157 361T134 232Q134 179 158 140T221 79T306 58Q365 58 407 86T478 157L541 121Q522 85 487 55T406 6T305 -12ZM323 640L432 790H535L399 640H323Z" />
<glyph unicode="&#xea;" horiz-adv-x="617" d="M305 -12Q233 -12 177 21T89 114T56 249Q56 310 76 364T134 459T222 524T332 548Q406 548 458 514T537 426T564 310Q564 294 561 275T556 245H103L108 315H518L480 286Q494 339 477 382T421 452T331 478Q267 478
223 447T157 361T134 232Q134 179 158 140T221 79T306 58Q365 58 407 86T478 157L541 121Q522 85 487 55T406 6T305 -12ZM174 640L316 790H400L499 640H417L355 731L268 640H174Z" />
<glyph unicode="&#xeb;" horiz-adv-x="617" d="M305 -12Q233 -12 177 21T89 114T56 249Q56 310 76 364T134 459T222 524T332 548Q406 548 458 514T537 426T564 310Q564 294 561 275T556 245H103L108 315H518L480 286Q494 339 477 382T421 452T331 478Q267 478
223 447T157 361T134 232Q134 179 158 140T221 79T306 58Q365 58 407 86T478 157L541 121Q522 85 487 55T406 6T305 -12ZM222 640L236 740H336L322 640H222ZM402 640L416 740H516L502 640H402Z" />
<glyph unicode="&#xec;" horiz-adv-x="201" d="M25 0L100 536H176L101 0H25ZM114 640L22 790H125L190 640H114Z" />
<glyph unicode="&#xed;" horiz-adv-x="201" d="M25 0L100 536H176L101 0H25ZM370 640L479 790H582L446 640H370Z" />
<glyph unicode="&#xee;" horiz-adv-x="201" d="M25 0L100 536H176L101 0H25ZM-35 640L107 790H191L290 640H208L146 731L59 640H-35Z" />
<glyph unicode="&#xef;" horiz-adv-x="201" d="M25 0L100 536H176L101 0H25ZM13 640L27 740H127L113 640H13ZM193 640L207 740H307L293 640H193Z" />
<glyph unicode="&#xf0;" horiz-adv-x="686" d="M338 -12Q264 -12 207 21T118 113T86 245Q86 307 108 360T169 453T261 515T376 538Q411 538 448 529T518 498T571 437L549 395Q557 460 539 519T480 624T384 698T261 725Q231 725 201 720T139 704L126 771Q163 783
198 789T265 795Q359 795 429 759T545 660T614 520T637 357Q637 251 604 168T504 36T338 -12ZM343 63Q401 63 448 93T524 174T552 282Q552 333 530 374T469 439T375 463Q317 463 269 434T193 355T165 247Q165 194 189 152T253 87T343 63ZM296 588L300 647L606 756L602
696L296 588Z" />
<glyph unicode="&#xf1;" horiz-adv-x="574" d="M40 0L115 536H190L176 432L159 438Q185 490 234 519T342 548Q400 548 442 521T505 446T517 336L470 0H395L441 331Q450 396 418 434T326 473Q284 473 249 454T190 400T159 317L115 0H40ZM398 640Q372 640 358 649T334
671T314 693T287 703Q272 703 260 690T243 644H181Q187 684 203 711T243 753T296 767Q322 767 336 758T360 736T380 714T407 704Q426 704 438 719T455 763H516Q508 707 476 674T398 640Z" />
<glyph unicode="&#xf2;" horiz-adv-x="658" d="M314 -12Q242 -12 184 21T91 115T56 253Q56 314 78 367T139 461T231 525T344 548Q418 548 476 515T569 422T603 286Q603 225 581 171T518 76T426 11T314 -12ZM313 63Q372 63 419 94T495 176T523 287Q523 341 500
383T437 449T345 473Q287 473 240 443T164 362T136 251Q136 197 159 155T222 88T313 63ZM343 640L251 790H354L419 640H343Z" />
<glyph unicode="&#xf3;" horiz-adv-x="658" d="M314 -12Q242 -12 184 21T91 115T56 253Q56 314 78 367T139 461T231 525T344 548Q418 548 476 515T569 422T603 286Q603 225 581 171T518 76T426 11T314 -12ZM313 63Q372 63 419 94T495 176T523 287Q523 341 500
383T437 449T345 473Q287 473 240 443T164 362T136 251Q136 197 159 155T222 88T313 63ZM343 640L452 790H555L419 640H343Z" />
<glyph unicode="&#xf4;" horiz-adv-x="658" d="M314 -12Q242 -12 184 21T91 115T56 253Q56 314 78 367T139 461T231 525T344 548Q418 548 476 515T569 422T603 286Q603 225 581 171T518 76T426 11T314 -12ZM313 63Q372 63 419 94T495 176T523 287Q523 341 500
383T437 449T345 473Q287 473 240 443T164 362T136 251Q136 197 159 155T222 88T313 63ZM194 640L336 790H420L519 640H437L375 731L288 640H194Z" />
<glyph unicode="&#xf5;" horiz-adv-x="658" d="M314 -12Q242 -12 184 21T91 115T56 253Q56 314 78 367T139 461T231 525T344 548Q418 548 476 515T569 422T603 286Q603 225 581 171T518 76T426 11T314 -12ZM313 63Q372 63 419 94T495 176T523 287Q523 341 500
383T437 449T345 473Q287 473 240 443T164 362T136 251Q136 197 159 155T222 88T313 63ZM440 640Q414 640 400 649T376 671T356 693T329 703Q314 703 302 690T285 644H223Q229 684 245 711T285 753T338 767Q364 767 378 758T402 736T422 714T449 704Q468 704 480
719T497 763H558Q550 707 518 674T440 640Z" />
<glyph unicode="&#xf6;" horiz-adv-x="658" d="M314 -12Q242 -12 184 21T91 115T56 253Q56 314 78 367T139 461T231 525T344 548Q418 548 476 515T569 422T603 286Q603 225 581 171T518 76T426 11T314 -12ZM313 63Q372 63 419 94T495 176T523 287Q523 341 500
383T437 449T345 473Q287 473 240 443T164 362T136 251Q136 197 159 155T222 88T313 63ZM242 640L256 740H356L342 640H242ZM422 640L436 740H536L522 640H422Z" />
<glyph unicode="&#xf7;" horiz-adv-x="607" d="M46 213L56 288H556L546 213H46ZM226 0L240 103H320L306 0H226ZM282 397L296 500H376L362 397H282Z" />
<glyph unicode="&#xf8;" horiz-adv-x="658" d="M4 0L549 536H654L109 0H4ZM314 -12Q242 -12 184 21T91 115T56 253Q56 314 78 367T139 461T231 525T344 548Q418 548 476 515T569 422T603 286Q603 225 581 171T518 76T426 11T314 -12ZM313 63Q372 63 419 94T495
176T523 287Q523 341 500 383T437 449T345 473Q287 473 240 443T164 362T136 251Q136 197 159 155T222 88T313 63Z" />
<glyph unicode="&#xf9;" horiz-adv-x="574" d="M232 -12Q175 -12 132 15T69 93T58 210L104 536H179L132 205Q126 162 139 130T180 81T248 63Q290 63 325 82T383 136T414 219L459 536H534L459 0H384L398 104L415 98Q388 46 340 17T232 -12ZM301 640L209 790H312L377
640H301Z" />
<glyph unicode="&#xfa;" horiz-adv-x="574" d="M232 -12Q175 -12 132 15T69 93T58 210L104 536H179L132 205Q126 162 139 130T180 81T248 63Q290 63 325 82T383 136T414 219L459 536H534L459 0H384L398 104L415 98Q388 46 340 17T232 -12ZM301 640L410 790H513L377
640H301Z" />
<glyph unicode="&#xfb;" horiz-adv-x="574" d="M232 -12Q175 -12 132 15T69 93T58 210L104 536H179L132 205Q126 162 139 130T180 81T248 63Q290 63 325 82T383 136T414 219L459 536H534L459 0H384L398 104L415 98Q388 46 340 17T232 -12ZM408 640L550 790H634L733
640H651L589 731L502 640H408Z" />
<glyph unicode="&#xfc;" horiz-adv-x="574" d="M232 -12Q175 -12 132 15T69 93T58 210L104 536H179L132 205Q126 162 139 130T180 81T248 63Q290 63 325 82T383 136T414 219L459 536H534L459 0H384L398 104L415 98Q388 46 340 17T232 -12ZM200 640L214 740H314L300
640H200ZM380 640L394 740H494L480 640H380Z" />
<glyph unicode="&#xfd;" horiz-adv-x="536" d="M23 -220Q6 -220 -11 -217T-43 -208L-37 -139Q-27 -140 -13 -142T17 -145Q51 -145 74 -136T118 -104T160 -44L206 34L196 -32L49 537H128L247 67H222L478 537H563L233 -70Q212 -109 183 -143T114 -199T23 -220ZM282
640L391 790H494L358 640H282Z" />
<glyph unicode="&#xfe;" horiz-adv-x="666" d="M12 -200L144 745H220L174 416L149 438Q184 489 239 518T363 548Q438 548 494 514T580 421T611 289Q611 228 590 174T531 77T441 12T328 -12Q258 -12 201 20T117 110L132 120L88 -200H12ZM326 63Q385 63 431 94T504
176T531 287Q531 341 509 383T447 449T354 473Q295 473 249 443T176 362T150 253Q150 198 173 155T235 88T326 63Z" />
<glyph unicode="&#xff;" horiz-adv-x="536" d="M23 -220Q6 -220 -11 -217T-43 -208L-37 -139Q-27 -140 -13 -142T17 -145Q51 -145 74 -136T118 -104T160 -44L206 34L196 -32L49 537H128L247 67H222L478 537H563L233 -70Q212 -109 183 -143T114 -199T23 -220ZM181
640L195 740H295L281 640H181ZM361 640L375 740H475L461 640H361Z" />
<glyph unicode="&#x2013;" horiz-adv-x="568" d="M69 233L79 303H499L489 233H69Z" />
<glyph unicode="&#x2014;" horiz-adv-x="898" d="M69 233L79 303H829L819 233H69Z" />
<glyph unicode="&#x2018;" horiz-adv-x="269" d="M116 527L128 611Q136 669 166 707T248 757L243 722Q212 714 196 693T173 637H211L196 527H116Z" />
<glyph unicode="&#x2019;" horiz-adv-x="270" d="M115 515L120 550Q151 558 167 579T190 635H152L167 745H247L235 661Q228 603 197 565T115 515Z" />
<glyph unicode="&#x201a;" horiz-adv-x="269" d="M25 -120L30 -85Q61 -77 77 -56T100 0H62L77 110H157L145 26Q138 -32 107 -70T25 -120Z" />
<glyph unicode="&#x201c;" horiz-adv-x="420" d="M214 527L226 611Q234 669 264 707T346 757L341 722Q310 714 294 693T271 637H309L294 527H214ZM64 527L76 611Q84 669 114 707T196 757L191 722Q160 714 144 693T121 637H159L144 527H64Z" />
<glyph unicode="&#x201d;" horiz-adv-x="420" d="M214 515L219 550Q250 558 266 579T289 635H251L266 745H346L334 661Q327 603 296 565T214 515ZM64 515L69 550Q100 558 116 579T139 635H101L116 745H196L184 661Q177 603 146 565T64 515Z" />
<glyph unicode="&#x201e;" horiz-adv-x="420" d="M64 -120L69 -85Q100 -77 116 -56T139 0H101L116 110H196L184 26Q177 -32 146 -70T64 -120ZM214 -120L219 -85Q250 -77 266 -56T289 0H251L266 110H346L334 26Q327 -32 296 -70T214 -120Z" />
<glyph unicode="&#x2022;" horiz-adv-x="646" d="M296 48Q238 48 194 72T126 139T101 237Q101 306 135 363T228 454T358 488Q414 488 456 463T521 396T545 299Q545 249 525 204T471 124T391 68T296 48Z" />
<glyph unicode="&#x2039;" horiz-adv-x="306" d="M154 79L29 269L209 459H304L118 261L238 79H154Z" />
<glyph unicode="&#x203a;" horiz-adv-x="306" d="M2 79L188 277L68 459H152L277 269L97 79H2Z" />
</font>
</defs>
</svg>
