<?xml version="1.0" standalone="no"?>
<!DOCTYPE svg PUBLIC "-//W3C//DTD SVG 1.1//EN" "http://www.w3.org/Graphics/SVG/1.1/DTD/svg11.dtd">
<svg xmlns="http://www.w3.org/2000/svg">
<defs >
<font id="PlusJakartaSans" horiz-adv-x="585" ><font-face
    font-family="Plus Jakarta Sans"
    units-per-em="1000"
    panose-1="0 0 0 0 0 0 0 0 0 0"
    ascent="1038"
    descent="-222"
    alphabetic="0" />
<glyph unicode=" " horiz-adv-x="178" />
<glyph unicode="!" horiz-adv-x="371" d="M128 226L119 745H252L243 226H128ZM119 0V140H252V0H119Z" />
<glyph unicode="&quot;" horiz-adv-x="498" d="M113 462L96 745H214L198 462H113ZM300 462L283 745H401L385 462H300Z" />
<glyph unicode="#" horiz-adv-x="915" d="M135 0L182 164H62V279H215L270 467H150V582H302L349 745H482L435 582H600L646 745H779L732 582H852V467H699L645 279H765V164H612L565 0H433L479 164H315L268 0H135ZM348 279H513L566 467H402L348 279Z" />
<glyph unicode="$" horiz-adv-x="647" d="M338 -12Q267 -12 207 14T103 86T39 195L152 244Q179 180 230 144T345 107Q381 107 407 118T448 150T463 198Q463 231 444 252T385 286L242 332Q155 359 111 413T67 540Q67 604 98 653T186 729T316 757Q383 757 439 734T535
669T596 571L484 521Q462 577 418 607T316 638Q282 638 256 627T216 595T201 546Q201 515 221 492T282 455L419 412Q508 383 552 332T597 206Q597 142 564 93T473 16T338 -12ZM290 -100V845H375V-100H290Z" />
<glyph unicode="%" horiz-adv-x="1046" d="M153 0L757 745H897L293 0H153ZM270 367Q214 367 170 393T99 464T73 562Q73 616 99 660T169 731T270 757Q325 757 369 731T439 661T465 562Q465 508 439 464T369 394T270 367ZM269 468Q299 468 319 481T349 516T360 562Q360
587 350 608T319 643T269 657Q241 657 221 643T189 608T178 562Q178 539 189 517T220 482T269 468ZM777 -12Q722 -12 678 14T607 85T581 183Q581 237 607 281T677 352T777 378Q833 378 877 352T947 282T973 183Q973 129 947 85T877 15T777 -12ZM777 89Q806 89 826
102T857 137T868 183Q868 208 858 229T827 264T777 278Q749 278 729 264T697 229T686 183Q686 160 697 138T728 103T777 89Z" />
<glyph unicode="&amp;" horiz-adv-x="793" d="M308 -12Q239 -12 187 13T106 83T76 190Q76 241 94 278T140 342T193 386T238 413L303 448Q335 465 361 482T404 521T420 572Q420 605 399 627T344 650Q312 650 290 628T267 571Q267 546 278 522T306 478T337 441L732
0H575L242 365Q219 390 196 419T158 485T143 565Q143 623 170 666T243 733T343 757Q398 757 442 733T513 667T540 571Q540 516 515 478T454 413T386 368L319 328Q297 316 273 298T231 254T214 192Q214 149 240 125T313 100Q341 100 363 109T402 133T431 164T453
195L570 365H707L572 155Q557 130 535 101T482 47T409 5T308 -12Z" />
<glyph unicode="&apos;" horiz-adv-x="311" d="M113 462L96 745H214L198 462H113Z" />
<glyph unicode="(" horiz-adv-x="379" d="M233 -170Q149 -72 107 43T64 288Q64 418 106 533T233 745H343Q271 638 236 524T200 288Q200 167 236 52T343 -170H233Z" />
<glyph unicode=")" horiz-adv-x="379" d="M37 -170Q108 -63 143 52T179 288Q179 409 144 523T37 745H147Q231 648 273 533T315 288Q315 158 273 43T147 -170H37Z" />
<glyph unicode="*" horiz-adv-x="540" d="M196 364L116 423L189 522L74 561L105 655L220 617V745H320V617L435 655L466 561L351 522L424 423L343 364L270 463L196 364Z" />
<glyph unicode="+" horiz-adv-x="660" d="M274 0V194H80V307H274V500H387V307H580V194H387V0H274Z" />
<glyph unicode="," horiz-adv-x="357" d="M103 -156V-91Q136 -83 156 -61T182 0H123V140H255V54Q255 -34 217 -87T103 -156Z" />
<glyph unicode="-" horiz-adv-x="600" d="M88 214V329H513V214H88Z" />
<glyph unicode="." horiz-adv-x="378" d="M123 0V140H255V0H123Z" />
<glyph unicode="/" horiz-adv-x="506" d="M16 -120L348 705H491L159 -120H16Z" />
<glyph unicode="0" horiz-adv-x="708" d="M354 -12Q265 -12 198 36T94 171T56 373Q56 489 93 575T197 709T353 757Q444 757 510 709T615 575T653 373Q653 258 616 172T511 37T354 -12ZM355 112Q406 112 442 143T497 233T517 373Q517 454 498 512T442 602T353 633Q303
633 267 602T212 513T192 373Q192 293 211 235T267 144T355 112Z" />
<glyph unicode="1" horiz-adv-x="403" d="M173 0V629H29V745H309V0H173Z" />
<glyph unicode="2" horiz-adv-x="597" d="M46 0V103L248 314Q308 377 340 414T386 479T399 534Q399 581 370 608T294 635Q246 635 211 608T160 527L41 564Q53 623 90 666T180 733T294 757Q366 757 420 731T505 658T536 548Q536 508 521 469T476 390T398 299L223
115H546V0H46Z" />
<glyph unicode="3" horiz-adv-x="611" d="M293 -12Q232 -12 178 10T85 74T32 173L151 215Q169 164 206 138T293 111Q333 111 362 126T409 169T426 237Q426 276 410 303T363 346T292 361Q273 361 253 357T216 345L185 410L378 630H74V745H531V638L337 411L339 462Q406
461 456 433T534 356T562 241Q562 169 527 112T431 21T293 -12Z" />
<glyph unicode="4" horiz-adv-x="654" d="M378 0V164H36V278L370 745H512V278H621V164H512V0H378ZM136 229L112 278H378V638L413 627L136 229Z" />
<glyph unicode="5" horiz-adv-x="615" d="M297 -12Q238 -12 185 10T93 72T40 169L158 211Q175 160 213 136T297 111Q335 111 364 127T410 173T426 242Q426 281 410 310T364 355T297 372Q258 372 227 355T181 306L70 331L129 745H535V630H183L234 689L192 377L153
409Q181 450 221 469T320 488Q394 488 448 456T533 369T563 242Q563 170 528 112T433 21T297 -12Z" />
<glyph unicode="6" horiz-adv-x="602" d="M302 -12Q226 -12 168 20T76 108T43 235Q43 271 50 307T78 384T138 475L346 745H508L255 420L233 444Q247 455 262 461T292 471T325 474Q393 474 446 443T529 359T560 238Q560 166 527 110T436 21T302 -12ZM302 111Q336
111 363 126T407 171T424 236Q424 274 408 301T364 345T302 361Q268 361 240 345T196 302T179 236Q179 200 195 171T240 127T302 111Z" />
<glyph unicode="7" horiz-adv-x="559" d="M72 0L382 630H31V745H525V630L222 0H72Z" />
<glyph unicode="8" horiz-adv-x="632" d="M316 -12Q235 -12 176 18T84 101T51 215Q51 288 90 338T203 413L195 380Q142 397 112 446T81 554Q81 613 111 659T194 731T316 757Q384 757 436 731T519 659T550 554Q550 494 520 446T436 379L429 414Q503 388 542 338T581
214Q581 152 549 101T457 19T316 -12ZM316 103Q355 103 384 117T429 158T445 219Q445 254 429 279T384 319T316 334Q277 334 249 320T204 280T188 219Q188 185 204 159T248 118T316 103ZM316 449Q345 449 367 462T401 496T414 546Q414 574 402 595T367 629T316
642Q287 642 265 630T230 596T217 546Q217 518 229 497T264 462T316 449Z" />
<glyph unicode="9" horiz-adv-x="602" d="M94 0L347 326L370 302Q355 291 341 284T311 274T277 271Q209 271 156 302T73 386T42 508Q42 580 75 636T167 724T301 757Q377 757 435 725T526 638T560 510Q560 474 552 438T524 362T465 270L257 0H94ZM301 385Q336 385
363 400T407 444T423 509Q423 547 407 575T363 619T301 635Q267 635 239 619T195 575T178 509Q178 473 194 445T239 401T301 385Z" />
<glyph unicode=":" horiz-adv-x="378" d="M123 0V140H255V0H123ZM123 404V544H255V404H123Z" />
<glyph unicode=";" horiz-adv-x="398" d="M123 -156V-92Q156 -84 177 -61T204 0H143V140H275V54Q275 -34 237 -87T123 -156ZM143 404V544H275V404H143Z" />
<glyph unicode="&lt;" horiz-adv-x="660" d="M557 13L98 208V336L557 532V398L205 249V295L557 146V13Z" />
<glyph unicode="=" horiz-adv-x="660" d="M105 301V414H555V301H105ZM105 59V171H555V59H105Z" />
<glyph unicode="&gt;" horiz-adv-x="660" d="M104 13V146L455 295V249L104 398V532L562 336V208L104 13Z" />
<glyph unicode="?" horiz-adv-x="583" d="M211 226V246Q211 290 224 324T259 384T303 433Q334 464 358 490T383 553Q383 575 372 594T340 624T287 635Q245 635 215 609T177 540L55 570Q64 626 95 668T177 733T290 757Q363 757 414 728T493 653T520 556Q520 516
504 485T465 429T416 378Q384 348 360 315T336 238V226H211ZM208 0V140H341V0H208Z" />
<glyph unicode="@" horiz-adv-x="927" d="M484 -218Q390 -218 311 -187T173 -99T82 36T50 210Q50 304 82 382T173 517T311 605T483 637Q577 637 654 605T786 516T872 381T902 211Q902 146 880 99T818 26T725 0Q691 0 658 13T602 55T577 129L601 79Q591 54 568
37T515 10T451 0Q393 0 346 27T270 103T241 213Q241 273 269 323T345 403T455 433Q504 433 543 415T595 365L585 331V423H676V170Q676 134 690 115T728 96Q761 96 777 123T793 215Q793 284 773 342T713 444T617 512T484 537Q411 537 352 513T249 444T182 341T158
211Q158 139 182 79T251 -26T354 -94T484 -118Q531 -118 574 -107T654 -72L700 -160Q606 -218 484 -218ZM462 96Q496 96 522 112T562 155T577 216Q577 267 545 301T463 336Q430 336 403 321T361 279T345 217Q345 183 360 156T402 112T462 96Z" />
<glyph unicode="A" horiz-adv-x="712" d="M11 0L268 745H444L701 0H553L500 160H212L158 0H11ZM251 280H461L337 651H375L251 280Z" />
<glyph unicode="B" horiz-adv-x="691" d="M72 0V745H386Q460 745 512 720T593 648T622 535Q622 484 595 440T507 366V429Q562 408 594 377T639 308T652 228Q652 121 582 61T386 0H72ZM208 120H400Q453 120 484 149T516 228Q516 277 485 307T400 337H208V120ZM208
456H393Q435 456 460 480T485 544Q485 583 460 606T393 629H208V456Z" />
<glyph unicode="C" horiz-adv-x="774" d="M422 -12Q342 -12 275 17T157 98T78 220T50 373Q50 456 77 526T155 648T274 728T422 757Q502 757 565 730T673 659T736 561L614 504Q593 560 543 596T422 633Q352 633 299 600T216 509T186 373Q186 295 215 237T298 145T422
112Q493 112 543 148T614 241L736 184Q717 131 673 87T566 15T422 -12Z" />
<glyph unicode="D" horiz-adv-x="740" d="M72 0V745H315Q433 745 520 698T656 567T704 373Q704 264 656 180T521 48T315 0H72ZM208 120H318Q394 120 449 151T536 239T567 373Q567 451 536 507T450 594T318 625H208V120Z" />
<glyph unicode="E" horiz-adv-x="595" d="M72 0V745H567V625H208V434H547V314H208V120H567V0H72Z" />
<glyph unicode="F" horiz-adv-x="586" d="M72 0V745H569V625H208V419H524V299H208V0H72Z" />
<glyph unicode="G" horiz-adv-x="808" d="M425 -12Q345 -12 277 17T158 98T79 220T50 373Q50 456 77 526T155 648T274 728T422 757Q502 757 565 730T673 659T736 561L615 503Q594 561 544 597T422 633Q352 633 299 600T216 509T186 373Q186 295 216 237T301 145T425
112Q482 112 530 134T607 198T636 297V354L698 300H422V415H772V340Q772 254 743 188T665 78T553 11T425 -12Z" />
<glyph unicode="H" horiz-adv-x="733" d="M72 0V745H208V420H525V745H662V0H525V300H208V0H72Z" />
<glyph unicode="I" horiz-adv-x="279" d="M72 0V745H208V0H72Z" />
<glyph unicode="J" horiz-adv-x="393" d="M39 0V125H82Q130 125 158 152T187 226V745H324V231Q324 162 295 110T211 29T82 0H39Z" />
<glyph unicode="K" horiz-adv-x="679" d="M72 0V745H208V357L171 370L488 745H659L362 393L370 489L668 0H508L308 328L208 209V0H72Z" />
<glyph unicode="L" horiz-adv-x="543" d="M72 0V745H208V120H527V0H72Z" />
<glyph unicode="M" horiz-adv-x="893" d="M72 0V745H202L481 366H419L692 745H822V0H685V590L738 577L455 200H439L163 577L208 590V0H72Z" />
<glyph unicode="N" horiz-adv-x="741" d="M72 0V745H178L588 193L533 182V745H669V0H562L158 556L208 567V0H72Z" />
<glyph unicode="O" horiz-adv-x="878" d="M439 -12Q357 -12 286 17T162 98T80 220T50 373Q50 456 79 526T161 648T285 728T439 757Q522 757 593 728T717 648T799 526T829 373Q829 291 799 221T716 98T593 17T439 -12ZM439 112Q494 112 540 131T620 186T673 269T692
373Q692 429 674 476T621 559T540 614T439 633Q385 633 339 614T259 560T205 477T186 373Q186 317 205 269T258 186T339 132T439 112Z" />
<glyph unicode="P" horiz-adv-x="648" d="M72 0V745H350Q426 745 484 718T576 638T609 510Q609 436 576 384T484 303T350 275H208V0H72ZM208 395H352Q389 395 416 409T458 450T473 510Q473 545 458 570T416 610T352 625H208V395Z" />
<glyph unicode="Q" horiz-adv-x="878" d="M439 -12Q357 -12 286 17T162 98T80 220T50 373Q50 456 79 526T161 648T285 728T439 757Q522 757 593 728T717 648T799 526T829 373Q829 291 799 221T716 98T593 17T439 -12ZM439 112Q494 112 540 131T620 186T673 269T692
373Q692 429 674 476T621 559T540 614T439 633Q385 633 339 614T259 560T205 477T186 373Q186 317 205 269T258 186T339 132T439 112ZM611 -90L379 298H521L756 -90H611Z" />
<glyph unicode="R" horiz-adv-x="661" d="M72 0V745H349Q425 745 483 718T575 638T608 510Q608 433 572 379T473 299L644 0H490L307 327L395 275H208V0H72ZM208 395H351Q388 395 415 409T457 450T472 510Q472 545 457 570T415 610T351 625H208V395Z" />
<glyph unicode="S" horiz-adv-x="647" d="M338 -12Q267 -12 207 14T103 86T39 195L152 244Q179 180 230 144T345 107Q381 107 407 118T448 150T463 198Q463 231 444 252T385 286L242 332Q155 359 111 413T67 540Q67 604 98 653T186 729T316 757Q383 757 439 734T535
669T596 571L484 521Q462 577 418 607T316 638Q282 638 256 627T216 595T201 546Q201 515 221 492T282 455L419 412Q508 383 552 332T597 206Q597 142 564 93T473 16T338 -12Z" />
<glyph unicode="T" horiz-adv-x="542" d="M204 0V625H11V745H531V625H341V0H204Z" />
<glyph unicode="U" horiz-adv-x="718" d="M359 -12Q273 -12 207 24T102 123T64 266V745H200V273Q200 227 220 190T277 133T359 112Q406 112 441 132T497 190T518 273V745H654V266Q654 186 616 123T512 24T359 -12Z" />
<glyph unicode="V" horiz-adv-x="697" d="M271 0L11 745H159L363 128H334L538 745H686L427 0H271Z" />
<glyph unicode="W" horiz-adv-x="1020" d="M211 0L11 745H157L314 110H276L440 745H581L744 110H706L863 745H1009L809 0H653L488 618H532L367 0H211Z" />
<glyph unicode="X" horiz-adv-x="661" d="M11 0L255 375L13 745H169L367 442H295L492 745H648L407 375L650 0H494L295 307H367L167 0H11Z" />
<glyph unicode="Y" horiz-adv-x="660" d="M262 0V330L11 745H166L358 421H303L494 745H649L399 331V0H262Z" />
<glyph unicode="Z" horiz-adv-x="571" d="M14 0V107L375 625H35V745H548V638L188 120H558V0H14Z" />
<glyph unicode="[" horiz-adv-x="416" d="M105 -170V745H365V630H237V-55H365V-170H105Z" />
<glyph unicode="\" horiz-adv-x="506" d="M348 -120L16 705H159L491 -120H348Z" />
<glyph unicode="]" horiz-adv-x="416" d="M51 -170V-55H179V630H51V745H311V-170H51Z" />
<glyph unicode="^" horiz-adv-x="660" d="M98 420L268 745H394L563 420H419L304 641H359L243 420H98Z" />
<glyph unicode="_" horiz-adv-x="663" d="M88 -115V0H575V-115H88Z" />
<glyph unicode="`" horiz-adv-x="381" d="M229 640L123 813H293L358 640H229Z" />
<glyph unicode="a" horiz-adv-x="580" d="M226 -12Q169 -12 127 7T62 61T39 144Q39 189 59 224T121 284T227 318L405 347V247L252 221Q213 214 194 196T175 149Q175 121 196 105T250 88Q291 88 322 105T371 154T389 222V362Q389 397 362 420T289 444Q247 444 215
422T167 362L60 414Q76 457 110 488T192 538T294 556Q361 556 412 532T491 464T520 362V0H396V93L424 95Q403 60 374 37T308 1T226 -12Z" />
<glyph unicode="b" horiz-adv-x="672" d="M358 -12Q299 -12 250 11T171 79L184 105V0H61V757H192V436L172 463Q200 507 248 531T359 556Q436 556 498 518T596 416T633 272Q633 193 597 128T499 26T358 -12ZM343 108Q388 108 423 129T477 187T497 272Q497 320 478
356T423 414T343 436Q300 436 266 415T212 357T192 272Q192 224 211 187T265 129T343 108Z" />
<glyph unicode="c" horiz-adv-x="608" d="M323 -12Q242 -12 178 25T76 127T39 273Q39 354 76 418T177 519T323 556Q381 556 431 536T517 480T570 395L455 345Q440 386 405 411T323 436Q280 436 247 415T194 357T175 272Q175 224 194 187T246 129T323 108Q370 108
405 133T455 200L570 148Q554 102 518 66T432 9T323 -12Z" />
<glyph unicode="d" horiz-adv-x="672" d="M314 -12Q235 -12 173 25T75 128T39 272Q39 352 75 416T173 518T313 556Q375 556 423 532T500 463L480 436V757H611V0H487V105L501 79Q473 35 423 12T314 -12ZM328 108Q373 108 407 129T460 187T480 272Q480 319 461 356T407
415T328 436Q284 436 249 415T195 357T175 272Q175 224 194 187T249 129T328 108Z" />
<glyph unicode="e" horiz-adv-x="612" d="M319 -12Q235 -12 172 26T74 129T39 273Q39 355 74 418T171 519T309 556Q373 556 421 535T504 477T556 393T574 290Q574 276 573 261T567 235H147V335H493L431 288Q440 334 427 370T383 427T309 448Q268 448 236 428T188
368T175 272Q171 222 188 184T240 124T320 103Q365 103 396 122T446 173L552 121Q536 82 502 52T422 5T319 -12Z" />
<glyph unicode="f" horiz-adv-x="406" d="M124 0V427H28V544H124V562Q124 624 149 667T221 734T330 757Q342 757 356 756T381 752V639Q371 641 363 641T347 642Q303 642 279 623T255 562V544H376V427H255V0H124Z" />
<glyph unicode="g" horiz-adv-x="652" d="M325 -220Q264 -220 212 -200T123 -145T68 -61L190 -15Q202 -53 237 -76T325 -100Q365 -100 395 -85T443 -42T460 27V151L485 121Q457 72 410 47T303 22Q227 22 167 57T73 153T39 290Q39 367 73 427T166 521T300 556Q361
556 407 531T485 457L467 424V544H591V27Q591 -44 557 -100T463 -188T325 -220ZM319 143Q361 143 392 161T442 213T460 289Q460 331 442 364T392 417T319 436Q278 436 245 417T194 365T175 289Q175 247 193 214T244 162T319 143Z" />
<glyph unicode="h" horiz-adv-x="593" d="M61 0V757H192V437L174 456Q193 505 236 530T338 556Q398 556 444 530T517 458T543 350V0H412V319Q412 355 398 381T360 421T302 436Q270 436 245 422T206 381T192 319V0H61Z" />
<glyph unicode="i" horiz-adv-x="252" d="M61 0V544H192V0H61ZM61 605V745H192V605H61Z" />
<glyph unicode="j" horiz-adv-x="252" d="M-14 -221Q-27 -221 -41 -220T-64 -217V-103Q-46 -106 -28 -106Q14 -106 37 -87T61 -27V544H192V-27Q192 -89 167 -132T96 -198T-14 -221ZM61 605V745H192V605H61Z" />
<glyph unicode="k" horiz-adv-x="577" d="M61 0V757H192V261L142 276L398 544H561L360 325L565 0H415L237 282L315 298L151 122L192 202V0H61Z" />
<glyph unicode="l" horiz-adv-x="252" d="M61 0V757H192V0H61Z" />
<glyph unicode="m" horiz-adv-x="924" d="M61 0V544H184V418L170 439Q185 498 230 527T336 556Q403 556 454 521T520 429L483 426Q508 491 558 523T673 556Q731 556 776 530T848 458T874 350V0H743V319Q743 355 730 381T694 421T638 436Q607 436 583 422T546 381T533
319V0H402V319Q402 355 389 381T353 421T297 436Q266 436 242 422T205 381T192 319V0H61Z" />
<glyph unicode="n" horiz-adv-x="593" d="M61 0V544H184V437L174 456Q193 505 236 530T338 556Q398 556 444 530T517 458T543 350V0H412V319Q412 355 398 381T360 421T302 436Q270 436 245 422T206 381T192 319V0H61Z" />
<glyph unicode="o" horiz-adv-x="652" d="M327 -12Q247 -12 182 25T78 126T39 272Q39 354 77 418T181 519T327 556Q407 556 472 519T575 419T614 272Q614 190 575 126T471 25T327 -12ZM327 108Q371 108 404 129T457 187T477 272Q477 320 458 356T405 414T327 436Q282
436 248 415T195 357T175 272Q175 225 194 188T248 129T327 108Z" />
<glyph unicode="p" horiz-adv-x="672" d="M61 -200V544H184V436L172 463Q200 507 248 531T359 556Q436 556 498 518T596 416T633 272Q633 193 597 128T499 26T358 -12Q299 -12 250 11T171 79L192 105V-200H61ZM343 108Q388 108 423 129T477 187T497 272Q497 320
478 356T423 414T343 436Q300 436 266 415T212 357T192 272Q192 224 211 187T265 129T343 108Z" />
<glyph unicode="q" horiz-adv-x="672" d="M480 -200V105L501 79Q473 35 423 12T314 -12Q235 -12 173 25T75 128T39 272Q39 352 75 416T173 518T313 556Q375 556 423 532T500 463L487 436V544H611V-200H480ZM328 108Q373 108 407 129T460 187T480 272Q480 319 461
356T407 415T328 436Q284 436 249 415T195 357T175 272Q175 224 194 187T249 129T328 108Z" />
<glyph unicode="r" horiz-adv-x="374" d="M61 0V544H184V423L174 441Q193 502 233 526T331 550H363V434H316Q260 434 226 400T192 303V0H61Z" />
<glyph unicode="s" horiz-adv-x="514" d="M268 -12Q181 -12 117 29T28 142L126 189Q147 143 184 117T268 91Q304 91 325 107T346 149Q346 165 338 175T315 193T283 206L194 231Q125 251 90 292T54 389Q54 439 79 476T150 535T255 556Q332 556 391 519T475 415L375
368Q361 405 328 427T254 449Q221 449 202 434T183 395Q183 380 191 369T213 351T247 338L334 312Q401 292 437 252T474 154Q474 105 448 68T376 9T268 -12Z" />
<glyph unicode="t" horiz-adv-x="413" d="M309 -6Q217 -6 167 44T116 187V427H22V544H32Q72 544 94 565T116 626V668H247V544H372V427H247V194Q247 167 256 148T286 119T339 109Q346 109 355 110T374 112V0Q360 -2 342 -4T309 -6Z" />
<glyph unicode="u" horiz-adv-x="593" d="M255 -12Q192 -12 146 16T75 94T50 211V544H181V222Q181 188 194 163T233 123T291 108Q323 108 348 122T387 163T401 225V544H532V0H408V107L419 88Q400 38 357 13T255 -12Z" />
<glyph unicode="v" horiz-adv-x="566" d="M225 0L11 544H154L309 116H256L412 544H555L341 0H225Z" />
<glyph unicode="w" horiz-adv-x="883" d="M198 0L11 544H149L286 131L238 132L384 544H500L645 132L597 131L734 544H872L685 0H568L420 431H464L314 0H198Z" />
<glyph unicode="x" horiz-adv-x="558" d="M12 0L202 273L11 544H165L314 324H245L394 544H547L357 273L546 0H393L246 219H313L166 0H12Z" />
<glyph unicode="y" horiz-adv-x="586" d="M127 -221Q105 -221 84 -218T46 -206V-96Q59 -99 77 -102T112 -105Q157 -105 177 -84T214 -29L250 55L248 -55L11 544H152L318 102H268L433 544H575L338 -55Q317 -108 287 -145T218 -201T127 -221Z" />
<glyph unicode="z" horiz-adv-x="481" d="M14 0V106L330 472L350 427H28V544H466V437L156 71L136 116H468V0H14Z" />
<glyph unicode="{" horiz-adv-x="398" d="M301 -170Q217 -170 171 -128T124 -9V166Q124 194 111 209T72 225H41V340H72Q98 340 111 356T124 399V585Q124 660 170 702T301 745H347V630H301Q280 630 268 618T257 582V410Q257 370 242 338T197 284Q226 267 241 235T257
164V-6Q256 -28 268 -41T301 -55H347V-170H301Z" />
<glyph unicode="|" horiz-adv-x="395" d="M131 -190V845H264V-190H131Z" />
<glyph unicode="}" horiz-adv-x="398" d="M51 -170V-55H97Q118 -55 130 -42T142 -6V164Q141 203 156 235T201 284Q172 305 157 337T142 410V582Q142 605 130 617T97 630H51V745H97Q182 745 228 703T274 585V399Q274 372 287 356T326 340H357V225H326Q301 225 288
210T274 166V-9Q274 -85 228 -127T97 -170H51Z" />
<glyph unicode="~" horiz-adv-x="660" d="M427 190Q393 190 369 200T327 223T291 246T252 256Q229 256 214 241T195 195H88Q93 278 132 321T237 365Q271 365 295 356T337 333T373 310T411 300Q433 300 447 314T467 361H573Q567 277 531 234T427 190Z" />
<glyph unicode="&#xa0;" horiz-adv-x="178" />
<glyph unicode="&#xa1;" horiz-adv-x="371" d="M119 -201L128 318H243L252 -201H119ZM119 404V544H252V404H119Z" />
<glyph unicode="&#xa2;" horiz-adv-x="608" d="M323 89Q242 89 178 126T76 228T39 374Q39 455 76 519T177 620T323 657Q381 657 431 637T517 581T570 497L455 446Q440 487 405 512T323 537Q280 537 247 516T194 458T175 373Q175 326 194 289T246 230T323 209Q370
209 405 234T455 301L570 249Q554 203 518 167T432 110T323 89ZM278 0V745H363V0H278Z" />
<glyph unicode="&#xa3;" horiz-adv-x="663" d="M36 0V115H136V514Q136 587 166 641T253 726T387 757Q448 757 499 734T586 670T628 571L508 534Q501 584 468 609T387 635Q332 635 302 604T272 514V115H595V0H36ZM36 337V421H456V337H36Z" />
<glyph unicode="&#xa4;" horiz-adv-x="594" d="M115 11L39 87L118 165Q104 188 97 214T89 269Q89 297 96 323T118 373L39 452L115 528L194 449Q217 463 243 470T297 477Q326 477 352 470T401 449L480 528L556 452L477 373Q491 350 498 324T505 269Q505 240 498
214T477 165L556 87L480 11L401 89Q379 76 353 69T297 61Q270 61 244 68T194 89L115 11ZM297 177Q323 177 343 189T376 223T389 269Q389 295 377 315T344 348T297 361Q272 361 251 349T218 316T205 269Q205 244 217 223T251 190T297 177Z" />
<glyph unicode="&#xa5;" horiz-adv-x="660" d="M262 0V330L11 745H166L358 421H303L494 745H649L399 331V0H262ZM120 289V372H540V289H120ZM120 145V229H540V145H120Z" />
<glyph unicode="&#xa6;" horiz-adv-x="395" d="M131 428V845H264V428H131ZM131 -190V228H264V-190H131Z" />
<glyph unicode="&#xa7;" horiz-adv-x="534" d="M279 -97Q188 -97 121 -54T28 64L127 111Q151 63 190 36T279 8Q318 8 341 25T365 72Q365 89 356 101T331 121T296 135L202 162Q130 182 93 225T55 327Q55 379 82 418T156 479T265 501L264 428Q227 428 206 407T185
350Q185 328 195 312T223 285T267 266L347 243Q418 222 456 179T494 76Q494 25 467 -14T392 -75T279 -97ZM279 159V229Q318 229 341 250T365 310Q365 332 356 348T328 376T282 395L202 418Q130 438 93 481T55 583Q55 635 82 674T156 735T265 757Q343 757 405 719T494
610L394 563Q379 602 343 625T264 649Q227 649 206 633T185 589Q185 571 194 559T220 539T254 526L347 499Q418 478 456 435T494 332Q494 281 467 242T392 181T279 159Z" />
<glyph unicode="&#xa8;" horiz-adv-x="534" d="M123 640V778H260V640H123ZM340 640V778H478V640H340Z" />
<glyph unicode="&#xa9;" horiz-adv-x="938" d="M470 -12Q390 -12 320 18T197 101T114 224T84 374Q84 454 113 523T196 645T319 727T470 757Q549 757 618 728T741 646T824 524T854 374Q854 294 825 224T742 101T620 18T470 -12ZM470 81Q531 81 583 103T676 166T738
259T761 374Q761 434 739 487T676 580T584 642T470 665Q408 665 355 643T262 580T200 488T177 374Q177 312 199 259T262 166T355 104T470 81ZM474 163Q416 163 369 190T294 265T266 373Q266 434 293 481T368 555T474 582Q519 582 555 568T617 528T652 471L562 436Q552
460 530 476T474 493Q425 493 396 460T366 373Q366 320 395 287T474 253Q506 253 529 269T562 309L652 274Q642 242 617 217T556 178T474 163Z" />
<glyph unicode="&#xaa;" horiz-adv-x="445" d="M173 355Q111 355 75 385T39 466Q39 515 72 546T174 589L291 608V530L193 512Q171 508 160 499T148 470Q148 453 160 443T193 433Q219 433 238 444T269 474T280 517V616Q280 637 263 652T217 667Q188 667 167 651T137
611L52 651Q69 699 115 727T221 755Q294 755 339 717T385 616V364H286V426L311 429Q286 392 253 374T173 355Z" />
<glyph unicode="&#xab;" horiz-adv-x="674" d="M198 72L45 269L198 467H343L191 269L343 72H198ZM483 72L330 269L483 467H628L476 269L628 72H483Z" />
<glyph unicode="&#xac;" horiz-adv-x="660" d="M468 40V194H80V307H580V40H468Z" />
<glyph unicode="&#xad;" horiz-adv-x="600" d="M88 214V329H513V214H88Z" />
<glyph unicode="&#xae;" horiz-adv-x="680" d="M341 271Q270 271 212 306T119 399T84 528Q84 600 118 658T211 750T341 784Q394 784 440 765T521 710T576 628T596 528Q596 458 562 400T470 306T341 271ZM341 342Q392 342 434 367T501 434T526 528Q526 580 501
622T434 690T341 715Q288 715 246 690T179 622T154 528Q154 476 179 434T247 367T341 342ZM232 393V664H351Q395 664 424 643T453 573Q453 542 439 523T402 493L459 393H380L329 485H306V393H232ZM306 547H353Q365 547 372 555T380 574Q380 586 373 593T353 601H306V547Z"
/>
<glyph unicode="&#xaf;" horiz-adv-x="455" d="M123 660V768H445V660H123Z" />
<glyph unicode="&#xb0;" horiz-adv-x="535" d="M267 423Q221 423 183 445T123 505T100 590Q100 636 122 674T183 734T267 757Q314 757 352 735T412 674T435 590Q435 543 413 506T352 446T267 423ZM267 513Q299 513 321 535T344 590Q344 623 321 645T267 667Q235
667 213 645T191 590Q191 557 213 535T267 513Z" />
<glyph unicode="&#xb1;" horiz-adv-x="660" d="M274 183V329H80V442H274V588H387V442H580V329H387V183H274ZM80 0V113H580V0H80Z" />
<glyph unicode="&#xb2;" horiz-adv-x="410" d="M23 224V308L164 453Q200 492 222 516T253 559T263 594Q263 623 245 639T198 656Q170 656 148 640T115 590L20 620Q29 662 55 692T120 738T198 754Q250 754 289 736T350 684T372 607Q372 561 348 522T281 439L162
316H378V224H23Z" />
<glyph unicode="&#xb3;" horiz-adv-x="425" d="M202 215Q159 215 120 231T53 278T16 347L111 380Q124 347 147 331T202 314Q240 314 262 335T285 393Q285 428 263 449T202 470Q169 470 143 457L118 509L251 655H49V745H373V661L237 507L240 549Q287 549 321 530T375
476T394 396Q394 345 369 304T301 239T202 215Z" />
<glyph unicode="&#xb4;" horiz-adv-x="381" d="M123 640L188 813H358L252 640H123Z" />
<glyph unicode="&#xb5;" horiz-adv-x="593" d="M50 -140V544H181V222Q181 188 194 163T233 123T291 108Q323 108 348 122T387 163T401 225V544H532V0H408V125L422 105Q408 46 363 17T255 -12Q224 -12 197 -5T147 17L181 63V-140H50Z" />
<glyph unicode="&#xb6;" horiz-adv-x="564" d="M297 -100V310Q230 310 180 337T101 414T73 527Q73 592 101 641T179 717T297 745H433V-100H297Z" />
<glyph unicode="&#xb7;" horiz-adv-x="378" d="M123 202V342H255V202H123Z" />
<glyph unicode="&#xb8;" horiz-adv-x="381" d="M236 -237Q210 -237 178 -229T123 -204L151 -129Q166 -139 184 -144T219 -150Q241 -150 253 -141T265 -116Q265 -97 241 -86T171 -69L192 10H269L260 -30Q312 -37 342 -62T372 -126Q372 -177 335 -207T236 -237Z" />
<glyph unicode="&#xb9;" horiz-adv-x="315" d="M117 224V654H16V745H226V224H117Z" />
<glyph unicode="&#xba;" horiz-adv-x="487" d="M244 355Q188 355 142 381T67 452T39 555Q39 613 67 658T141 729T244 755Q300 755 346 729T420 658T448 555Q448 497 421 452T347 381T244 355ZM244 450Q273 450 294 464T327 501T339 555Q339 586 327 609T293 646T244
660Q216 660 194 647T160 609T148 555Q148 525 160 502T194 464T244 450Z" />
<glyph unicode="&#xbb;" horiz-adv-x="674" d="M331 72L483 269L331 467H475L629 269L475 72H331ZM46 72L198 269L46 467H190L344 269L190 72H46Z" />
<glyph unicode="&#xbc;" horiz-adv-x="881" d="M97 328V667H16V745H190V328H97ZM111 0L557 745H650L204 0H111ZM696 0V89H515V167L689 417H790V167H856V89H790V0H696ZM582 134L565 167H696V346L720 338L582 134Z" />
<glyph unicode="&#xbd;" horiz-adv-x="825" d="M97 328V667H16V745H190V328H97ZM111 0L557 745H650L204 0H111ZM508 0V72L620 188Q650 217 666 236T689 269T696 295Q696 315 682 327T649 340Q628 340 611 328T586 291L505 318Q512 351 533 374T585 411T649 424Q712
424 750 392T789 306Q789 269 769 238T719 175L626 79H793V0H508Z" />
<glyph unicode="&#xbe;" horiz-adv-x="953" d="M166 321Q114 321 71 350T16 428L99 456Q108 431 125 419T166 406Q194 406 211 422T229 465Q229 490 213 505T166 521Q154 521 141 518T117 510L95 554L200 668H43V745H305V672L195 551L199 590Q255 590 288 556T321
467Q321 426 301 393T245 341T166 321ZM183 0L629 745H722L276 0H183ZM768 0V89H587V167L761 417H862V167H928V89H862V0H768ZM654 134L637 167H768V346L792 338L654 134Z" />
<glyph unicode="&#xbf;" horiz-adv-x="583" d="M293 -213Q220 -213 169 -184T91 -109T64 -12Q64 28 79 59T119 115T168 166Q199 196 223 229T248 305V318H373V298Q373 254 360 220T325 160T281 111Q250 80 225 54T200 -9Q200 -32 211 -50T244 -80T296 -91Q339
-91 369 -66T407 3L529 -27Q520 -82 488 -124T406 -189T293 -213ZM242 404V544H375V404H242Z" />
<glyph unicode="&#xc0;" horiz-adv-x="712" d="M11 0L268 745H444L701 0H553L500 160H212L158 0H11ZM251 280H461L337 651H375L251 280ZM292 842L186 1015H356L421 842H292Z" />
<glyph unicode="&#xc1;" horiz-adv-x="712" d="M11 0L268 745H444L701 0H553L500 160H212L158 0H11ZM251 280H461L337 651H375L251 280ZM292 842L357 1015H527L421 842H292Z" />
<glyph unicode="&#xc2;" horiz-adv-x="712" d="M11 0L268 745H444L701 0H553L500 160H212L158 0H11ZM251 280H461L337 651H375L251 280ZM162 842L279 1007H434L552 842H422L357 932L292 842H162Z" />
<glyph unicode="&#xc3;" horiz-adv-x="712" d="M11 0L268 745H444L701 0H553L500 160H212L158 0H11ZM251 280H461L337 651H375L251 280ZM428 842Q401 842 383 850T351 869T325 888T295 897Q278 897 269 885T260 846H159Q159 926 195 963T282 1001Q310 1001 329
993T362 974T388 955T416 947Q436 947 444 960T452 997H553Q552 921 516 882T428 842Z" />
<glyph unicode="&#xc4;" horiz-adv-x="712" d="M11 0L268 745H444L701 0H553L500 160H212L158 0H11ZM251 280H461L337 651H375L251 280ZM179 842V980H316V842H179ZM396 842V980H534V842H396Z" />
<glyph unicode="&#xc5;" horiz-adv-x="712" d="M11 0L268 745H444L701 0H553L500 160H212L158 0H11ZM251 280H461L337 651H375L251 280ZM357 800Q304 800 268 833T232 921Q232 974 267 1007T357 1041Q410 1041 445 1008T481 921Q481 867 446 834T357 800ZM357
878Q375 878 386 890T398 921Q398 940 387 951T357 963Q339 963 327 952T314 921Q314 902 326 890T357 878Z" />
<glyph unicode="&#xc6;" horiz-adv-x="991" d="M11 0L268 745H964V625H604V434H944V314H604V120H964L963 0H468V160H212L158 0H11ZM251 280H468V625H367L251 280Z" />
<glyph unicode="&#xc7;" horiz-adv-x="774" d="M422 -12Q342 -12 275 17T157 98T78 220T50 373Q50 456 77 526T155 648T274 728T422 757Q502 757 565 730T673 659T736 561L614 504Q593 560 543 596T422 633Q352 633 299 600T216 509T186 373Q186 295 215 237T298
145T422 112Q493 112 543 148T614 241L736 184Q717 131 673 87T566 15T422 -12ZM432 -237Q406 -237 374 -229T319 -204L347 -129Q362 -139 380 -144T415 -150Q437 -150 449 -141T461 -116Q461 -97 437 -86T367 -69L388 10H465L456 -30Q508 -37 538 -62T568 -126Q568
-177 531 -207T432 -237Z" />
<glyph unicode="&#xc8;" horiz-adv-x="595" d="M72 0V745H567V625H208V434H547V314H208V120H567V0H72ZM256 842L150 1015H320L385 842H256Z" />
<glyph unicode="&#xc9;" horiz-adv-x="595" d="M72 0V745H567V625H208V434H547V314H208V120H567V0H72ZM255 842L320 1015H490L384 842H255Z" />
<glyph unicode="&#xca;" horiz-adv-x="595" d="M72 0V745H567V625H208V434H547V314H208V120H567V0H72ZM125 842L242 1007H397L515 842H385L320 932L255 842H125Z" />
<glyph unicode="&#xcb;" horiz-adv-x="595" d="M72 0V745H567V625H208V434H547V314H208V120H567V0H72ZM143 842V980H280V842H143ZM360 842V980H498V842H360Z" />
<glyph unicode="&#xcc;" horiz-adv-x="279" d="M72 0V745H208V0H72ZM76 842L-30 1015H140L205 842H76Z" />
<glyph unicode="&#xcd;" horiz-adv-x="279" d="M72 0V745H208V0H72ZM76 842L141 1015H311L205 842H76Z" />
<glyph unicode="&#xce;" horiz-adv-x="279" d="M72 0V745H208V0H72ZM-54 842L63 1007H218L336 842H206L141 932L76 842H-54Z" />
<glyph unicode="&#xcf;" horiz-adv-x="279" d="M72 0V745H208V0H72ZM-37 842V980H100V842H-37ZM180 842V980H318V842H180Z" />
<glyph unicode="&#xd0;" horiz-adv-x="740" d="M16 316V431H365V316H16ZM72 0V745H315Q433 745 520 698T656 567T704 373Q704 264 656 180T521 48T315 0H72ZM208 120H318Q394 120 449 151T536 239T567 373Q567 451 536 507T450 594T318 625H208V120Z" />
<glyph unicode="&#xd1;" horiz-adv-x="741" d="M72 0V745H178L588 193L533 182V745H669V0H562L158 556L208 567V0H72ZM443 842Q416 842 398 850T366 869T340 888T310 897Q293 897 284 885T275 846H174Q174 926 210 963T297 1001Q325 1001 344 993T377 974T403
955T431 947Q451 947 459 960T467 997H568Q567 921 531 882T443 842Z" />
<glyph unicode="&#xd2;" horiz-adv-x="878" d="M439 -12Q357 -12 286 17T162 98T80 220T50 373Q50 456 79 526T161 648T285 728T439 757Q522 757 593 728T717 648T799 526T829 373Q829 291 799 221T716 98T593 17T439 -12ZM439 112Q494 112 540 131T620 186T673
269T692 373Q692 429 674 476T621 559T540 614T439 633Q385 633 339 614T259 560T205 477T186 373Q186 317 205 269T258 186T339 132T439 112ZM375 842L269 1015H439L504 842H375Z" />
<glyph unicode="&#xd3;" horiz-adv-x="878" d="M439 -12Q357 -12 286 17T162 98T80 220T50 373Q50 456 79 526T161 648T285 728T439 757Q522 757 593 728T717 648T799 526T829 373Q829 291 799 221T716 98T593 17T439 -12ZM439 112Q494 112 540 131T620 186T673
269T692 373Q692 429 674 476T621 559T540 614T439 633Q385 633 339 614T259 560T205 477T186 373Q186 317 205 269T258 186T339 132T439 112ZM375 842L440 1015H610L504 842H375Z" />
<glyph unicode="&#xd4;" horiz-adv-x="878" d="M439 -12Q357 -12 286 17T162 98T80 220T50 373Q50 456 79 526T161 648T285 728T439 757Q522 757 593 728T717 648T799 526T829 373Q829 291 799 221T716 98T593 17T439 -12ZM439 112Q494 112 540 131T620 186T673
269T692 373Q692 429 674 476T621 559T540 614T439 633Q385 633 339 614T259 560T205 477T186 373Q186 317 205 269T258 186T339 132T439 112ZM245 842L362 1007H517L635 842H505L440 932L375 842H245Z" />
<glyph unicode="&#xd5;" horiz-adv-x="878" d="M439 -12Q357 -12 286 17T162 98T80 220T50 373Q50 456 79 526T161 648T285 728T439 757Q522 757 593 728T717 648T799 526T829 373Q829 291 799 221T716 98T593 17T439 -12ZM439 112Q494 112 540 131T620 186T673
269T692 373Q692 429 674 476T621 559T540 614T439 633Q385 633 339 614T259 560T205 477T186 373Q186 317 205 269T258 186T339 132T439 112ZM511 842Q484 842 466 850T434 869T408 888T378 897Q361 897 352 885T343 846H242Q242 926 278 963T365 1001Q393 1001
412 993T445 974T471 955T499 947Q519 947 527 960T535 997H636Q635 921 599 882T511 842Z" />
<glyph unicode="&#xd6;" horiz-adv-x="878" d="M439 -12Q357 -12 286 17T162 98T80 220T50 373Q50 456 79 526T161 648T285 728T439 757Q522 757 593 728T717 648T799 526T829 373Q829 291 799 221T716 98T593 17T439 -12ZM439 112Q494 112 540 131T620 186T673
269T692 373Q692 429 674 476T621 559T540 614T439 633Q385 633 339 614T259 560T205 477T186 373Q186 317 205 269T258 186T339 132T439 112ZM262 842V980H399V842H262ZM479 842V980H617V842H479Z" />
<glyph unicode="&#xd7;" horiz-adv-x="660" d="M179 0L99 80L251 232L100 382L180 461L330 311L481 461L561 382L409 232L561 80L482 0L330 152L179 0Z" />
<glyph unicode="&#xd8;" horiz-adv-x="878" d="M58 0L668 745H820L210 0H58ZM439 -12Q357 -12 286 17T162 98T80 220T50 373Q50 456 79 526T161 648T285 728T439 757Q522 757 593 728T717 648T799 526T829 373Q829 291 799 221T716 98T593 17T439 -12ZM439 112Q494
112 540 131T620 186T673 269T692 373Q692 429 674 476T621 559T540 614T439 633Q385 633 339 614T259 560T205 477T186 373Q186 317 205 269T258 186T339 132T439 112Z" />
<glyph unicode="&#xd9;" horiz-adv-x="718" d="M359 -12Q273 -12 207 24T102 123T64 266V745H200V273Q200 227 220 190T277 133T359 112Q406 112 441 132T497 190T518 273V745H654V266Q654 186 616 123T512 24T359 -12ZM295 842L189 1015H359L424 842H295Z" />
<glyph unicode="&#xda;" horiz-adv-x="718" d="M359 -12Q273 -12 207 24T102 123T64 266V745H200V273Q200 227 220 190T277 133T359 112Q406 112 441 132T497 190T518 273V745H654V266Q654 186 616 123T512 24T359 -12ZM295 842L360 1015H530L424 842H295Z" />
<glyph unicode="&#xdb;" horiz-adv-x="718" d="M359 -12Q273 -12 207 24T102 123T64 266V745H200V273Q200 227 220 190T277 133T359 112Q406 112 441 132T497 190T518 273V745H654V266Q654 186 616 123T512 24T359 -12ZM165 842L282 1007H437L555 842H425L360
932L295 842H165Z" />
<glyph unicode="&#xdc;" horiz-adv-x="718" d="M359 -12Q273 -12 207 24T102 123T64 266V745H200V273Q200 227 220 190T277 133T359 112Q406 112 441 132T497 190T518 273V745H654V266Q654 186 616 123T512 24T359 -12ZM182 842V980H319V842H182ZM399 842V980H537V842H399Z"
/>
<glyph unicode="&#xdd;" horiz-adv-x="660" d="M262 0V330L11 745H166L358 421H303L494 745H649L399 331V0H262ZM266 842L331 1015H501L395 842H266Z" />
<glyph unicode="&#xde;" horiz-adv-x="650" d="M65 0V745H201V608H344Q420 608 478 581T569 501T603 372Q603 298 570 246T478 166T344 138H201V0H65ZM201 258H345Q382 258 409 272T451 312T466 372Q466 407 451 433T409 473T345 488H201V258Z" />
<glyph unicode="&#xdf;" horiz-adv-x="641" d="M72 -157V503Q72 582 105 639T196 726T329 757Q402 757 457 731T542 657T572 546Q572 491 542 447T456 382L448 420Q531 393 567 347T603 228Q603 158 573 107T486 28T353 0H285V115H345Q400 115 433 146T467 228Q467
278 434 308T345 338H285V453H336Q365 453 387 465T423 498T436 547Q436 575 423 596T385 630T329 642Q291 642 263 626T219 578T203 503V-157H72Z" />
<glyph unicode="&#xe0;" horiz-adv-x="580" d="M226 -12Q169 -12 127 7T62 61T39 144Q39 189 59 224T121 284T227 318L405 347V247L252 221Q213 214 194 196T175 149Q175 121 196 105T250 88Q291 88 322 105T371 154T389 222V362Q389 397 362 420T289 444Q247
444 215 422T167 362L60 414Q76 457 110 488T192 538T294 556Q361 556 412 532T491 464T520 362V0H396V93L424 95Q403 60 374 37T308 1T226 -12ZM231 640L125 813H295L360 640H231Z" />
<glyph unicode="&#xe1;" horiz-adv-x="580" d="M226 -12Q169 -12 127 7T62 61T39 144Q39 189 59 224T121 284T227 318L405 347V247L252 221Q213 214 194 196T175 149Q175 121 196 105T250 88Q291 88 322 105T371 154T389 222V362Q389 397 362 420T289 444Q247
444 215 422T167 362L60 414Q76 457 110 488T192 538T294 556Q361 556 412 532T491 464T520 362V0H396V93L424 95Q403 60 374 37T308 1T226 -12ZM230 640L295 813H465L359 640H230Z" />
<glyph unicode="&#xe2;" horiz-adv-x="580" d="M226 -12Q169 -12 127 7T62 61T39 144Q39 189 59 224T121 284T227 318L405 347V247L252 221Q213 214 194 196T175 149Q175 121 196 105T250 88Q291 88 322 105T371 154T389 222V362Q389 397 362 420T289 444Q247
444 215 422T167 362L60 414Q76 457 110 488T192 538T294 556Q361 556 412 532T491 464T520 362V0H396V93L424 95Q403 60 374 37T308 1T226 -12ZM356 640L473 805H628L746 640H616L551 730L486 640H356Z" />
<glyph unicode="&#xe3;" horiz-adv-x="580" d="M226 -12Q169 -12 127 7T62 61T39 144Q39 189 59 224T121 284T227 318L405 347V247L252 221Q213 214 194 196T175 149Q175 121 196 105T250 88Q291 88 322 105T371 154T389 222V362Q389 397 362 420T289 444Q247
444 215 422T167 362L60 414Q76 457 110 488T192 538T294 556Q361 556 412 532T491 464T520 362V0H396V93L424 95Q403 60 374 37T308 1T226 -12ZM623 640Q596 640 578 648T546 667T520 686T490 695Q473 695 464 683T455 644H354Q354 724 390 761T477 799Q505 799
524 791T557 772T583 753T611 745Q631 745 639 758T647 795H748Q747 719 711 680T623 640Z" />
<glyph unicode="&#xe4;" horiz-adv-x="580" d="M226 -12Q169 -12 127 7T62 61T39 144Q39 189 59 224T121 284T227 318L405 347V247L252 221Q213 214 194 196T175 149Q175 121 196 105T250 88Q291 88 322 105T371 154T389 222V362Q389 397 362 420T289 444Q247
444 215 422T167 362L60 414Q76 457 110 488T192 538T294 556Q361 556 412 532T491 464T520 362V0H396V93L424 95Q403 60 374 37T308 1T226 -12ZM374 640V778H511V640H374ZM591 640V778H729V640H591Z" />
<glyph unicode="&#xe5;" horiz-adv-x="580" d="M226 -12Q169 -12 127 7T62 61T39 144Q39 189 59 224T121 284T227 318L405 347V247L252 221Q213 214 194 196T175 149Q175 121 196 105T250 88Q291 88 322 105T371 154T389 222V362Q389 397 362 420T289 444Q247
444 215 422T167 362L60 414Q76 457 110 488T192 538T294 556Q361 556 412 532T491 464T520 362V0H396V93L424 95Q403 60 374 37T308 1T226 -12ZM295 598Q242 598 206 631T170 719Q170 772 205 805T295 839Q348 839 383 806T419 719Q419 665 384 632T295 598ZM295
676Q313 676 324 688T336 719Q336 738 325 749T295 761Q277 761 265 750T252 719Q252 700 264 688T295 676Z" />
<glyph unicode="&#xe6;" horiz-adv-x="967" d="M226 -12Q169 -12 127 7T62 61T39 144Q39 189 59 224T121 284T227 318L389 344V362Q389 397 362 420T289 444Q247 444 215 422T167 362L60 414Q76 457 110 488T192 538T294 556Q365 556 418 528T497 451L451 452Q488
499 543 527T664 556Q727 556 776 535T859 477T910 393T928 290Q928 276 927 261T922 235H530Q534 195 553 166T603 120T675 103Q720 103 751 122T801 173L907 121Q891 82 858 52T781 5T688 -12Q623 -12 569 13T479 89L507 116V0H396V117L422 89Q400 56 371 34T306
0T226 -12ZM250 88Q291 88 322 105T371 154T389 222V244L252 221Q213 214 194 196T175 149Q175 121 196 105T250 88ZM533 335H789Q786 368 770 394T726 434T664 448Q631 448 604 435T558 397T533 335Z" />
<glyph unicode="&#xe7;" horiz-adv-x="608" d="M323 -12Q242 -12 178 25T76 127T39 273Q39 354 76 418T177 519T323 556Q381 556 431 536T517 480T570 395L455 345Q440 386 405 411T323 436Q280 436 247 415T194 357T175 272Q175 224 194 187T246 129T323 108Q370
108 405 133T455 200L570 148Q554 102 518 66T432 9T323 -12ZM333 -237Q307 -237 275 -229T220 -204L248 -129Q263 -139 281 -144T316 -150Q338 -150 350 -141T362 -116Q362 -97 338 -86T268 -69L289 10H366L357 -30Q409 -37 439 -62T469 -126Q469 -177 432 -207T333
-237Z" />
<glyph unicode="&#xe8;" horiz-adv-x="612" d="M319 -12Q235 -12 172 26T74 129T39 273Q39 355 74 418T171 519T309 556Q373 556 421 535T504 477T556 393T574 290Q574 276 573 261T567 235H147V335H493L431 288Q440 334 427 370T383 427T309 448Q268 448 236
428T188 368T175 272Q171 222 188 184T240 124T320 103Q365 103 396 122T446 173L552 121Q536 82 502 52T422 5T319 -12ZM242 640L136 813H306L371 640H242Z" />
<glyph unicode="&#xe9;" horiz-adv-x="612" d="M319 -12Q235 -12 172 26T74 129T39 273Q39 355 74 418T171 519T309 556Q373 556 421 535T504 477T556 393T574 290Q574 276 573 261T567 235H147V335H493L431 288Q440 334 427 370T383 427T309 448Q268 448 236
428T188 368T175 272Q171 222 188 184T240 124T320 103Q365 103 396 122T446 173L552 121Q536 82 502 52T422 5T319 -12ZM242 640L307 813H477L371 640H242Z" />
<glyph unicode="&#xea;" horiz-adv-x="612" d="M319 -12Q235 -12 172 26T74 129T39 273Q39 355 74 418T171 519T309 556Q373 556 421 535T504 477T556 393T574 290Q574 276 573 261T567 235H147V335H493L431 288Q440 334 427 370T383 427T309 448Q268 448 236
428T188 368T175 272Q171 222 188 184T240 124T320 103Q365 103 396 122T446 173L552 121Q536 82 502 52T422 5T319 -12ZM368 640L485 805H640L758 640H628L563 730L498 640H368Z" />
<glyph unicode="&#xeb;" horiz-adv-x="612" d="M319 -12Q235 -12 172 26T74 129T39 273Q39 355 74 418T171 519T309 556Q373 556 421 535T504 477T556 393T574 290Q574 276 573 261T567 235H147V335H493L431 288Q440 334 427 370T383 427T309 448Q268 448 236
428T188 368T175 272Q171 222 188 184T240 124T320 103Q365 103 396 122T446 173L552 121Q536 82 502 52T422 5T319 -12ZM130 640V778H267V640H130ZM347 640V778H485V640H347Z" />
<glyph unicode="&#xec;" horiz-adv-x="228" d="M49 0V544H180V0H49ZM50 640L-56 813H114L179 640H50Z" />
<glyph unicode="&#xed;" horiz-adv-x="228" d="M49 0V544H180V0H49ZM306 640L371 813H541L435 640H306Z" />
<glyph unicode="&#xee;" horiz-adv-x="228" d="M49 0V544H180V0H49ZM-80 640L37 805H192L310 640H180L115 730L50 640H-80Z" />
<glyph unicode="&#xef;" horiz-adv-x="228" d="M49 0V544H180V0H49ZM-63 640V778H74V640H-63ZM154 640V778H292V640H154Z" />
<glyph unicode="&#xf0;" horiz-adv-x="652" d="M328 -12Q269 -12 217 8T124 66T62 156T39 269Q39 348 76 410T176 509T319 546Q355 546 385 538T442 512T494 467L471 426Q469 473 455 513T415 584T355 637T280 669T197 681Q171 681 146 677T93 664L78 771Q152
796 220 796Q293 796 354 772T464 703T545 599T596 472T614 330Q614 215 577 140T475 26T328 -12ZM327 108Q371 108 404 129T457 186T477 268Q477 313 459 348T407 405T327 426Q282 426 248 406T194 349T175 268Q175 221 195 185T249 129T327 108ZM222 563V623L562
754V694L222 563Z" />
<glyph unicode="&#xf1;" horiz-adv-x="593" d="M61 0V544H184V437L174 456Q193 505 236 530T338 556Q398 556 444 530T517 458T543 350V0H412V319Q412 355 398 381T360 421T302 436Q270 436 245 422T206 381T192 319V0H61ZM625 640Q598 640 580 648T548 667T522
686T492 695Q475 695 466 683T457 644H356Q356 724 392 761T479 799Q507 799 526 791T559 772T585 753T613 745Q633 745 641 758T649 795H750Q749 719 713 680T625 640Z" />
<glyph unicode="&#xf2;" horiz-adv-x="652" d="M327 -12Q247 -12 182 25T78 126T39 272Q39 354 77 418T181 519T327 556Q407 556 472 519T575 419T614 272Q614 190 575 126T471 25T327 -12ZM327 108Q371 108 404 129T457 187T477 272Q477 320 458 356T405 414T327
436Q282 436 248 415T195 357T175 272Q175 225 194 188T248 129T327 108ZM262 640L156 813H326L391 640H262Z" />
<glyph unicode="&#xf3;" horiz-adv-x="652" d="M327 -12Q247 -12 182 25T78 126T39 272Q39 354 77 418T181 519T327 556Q407 556 472 519T575 419T614 272Q614 190 575 126T471 25T327 -12ZM327 108Q371 108 404 129T457 187T477 272Q477 320 458 356T405 414T327
436Q282 436 248 415T195 357T175 272Q175 225 194 188T248 129T327 108ZM262 640L327 813H497L391 640H262Z" />
<glyph unicode="&#xf4;" horiz-adv-x="652" d="M327 -12Q247 -12 182 25T78 126T39 272Q39 354 77 418T181 519T327 556Q407 556 472 519T575 419T614 272Q614 190 575 126T471 25T327 -12ZM327 108Q371 108 404 129T457 187T477 272Q477 320 458 356T405 414T327
436Q282 436 248 415T195 357T175 272Q175 225 194 188T248 129T327 108ZM132 640L249 805H404L522 640H392L327 730L262 640H132Z" />
<glyph unicode="&#xf5;" horiz-adv-x="652" d="M327 -12Q247 -12 182 25T78 126T39 272Q39 354 77 418T181 519T327 556Q407 556 472 519T575 419T614 272Q614 190 575 126T471 25T327 -12ZM327 108Q371 108 404 129T457 187T477 272Q477 320 458 356T405 414T327
436Q282 436 248 415T195 357T175 272Q175 225 194 188T248 129T327 108ZM399 640Q372 640 354 648T322 667T296 686T266 695Q249 695 240 683T231 644H130Q130 724 166 761T253 799Q281 799 300 791T333 772T359 753T387 745Q407 745 415 758T423 795H524Q523
719 487 680T399 640Z" />
<glyph unicode="&#xf6;" horiz-adv-x="652" d="M327 -12Q247 -12 182 25T78 126T39 272Q39 354 77 418T181 519T327 556Q407 556 472 519T575 419T614 272Q614 190 575 126T471 25T327 -12ZM327 108Q371 108 404 129T457 187T477 272Q477 320 458 356T405 414T327
436Q282 436 248 415T195 357T175 272Q175 225 194 188T248 129T327 108ZM150 640V778H287V640H150ZM367 640V778H505V640H367Z" />
<glyph unicode="&#xf7;" horiz-adv-x="660" d="M80 194V307H580V194H80ZM264 0V114H396V0H264ZM264 386V500H396V386H264Z" />
<glyph unicode="&#xf8;" horiz-adv-x="652" d="M17 0L486 544H636L167 0H17ZM327 -12Q247 -12 182 25T78 126T39 272Q39 354 77 418T181 519T327 556Q407 556 472 519T575 419T614 272Q614 190 575 126T471 25T327 -12ZM327 108Q371 108 404 129T457 187T477 272Q477
320 458 356T405 414T327 436Q282 436 248 415T195 357T175 272Q175 225 194 188T248 129T327 108Z" />
<glyph unicode="&#xf9;" horiz-adv-x="593" d="M255 -12Q192 -12 146 16T75 94T50 211V544H181V222Q181 188 194 163T233 123T291 108Q323 108 348 122T387 163T401 225V544H532V0H408V107L419 88Q400 38 357 13T255 -12ZM233 640L127 813H297L362 640H233Z" />
<glyph unicode="&#xfa;" horiz-adv-x="593" d="M255 -12Q192 -12 146 16T75 94T50 211V544H181V222Q181 188 194 163T233 123T291 108Q323 108 348 122T387 163T401 225V544H532V0H408V107L419 88Q400 38 357 13T255 -12ZM232 640L297 813H467L361 640H232Z" />
<glyph unicode="&#xfb;" horiz-adv-x="593" d="M255 -12Q192 -12 146 16T75 94T50 211V544H181V222Q181 188 194 163T233 123T291 108Q323 108 348 122T387 163T401 225V544H532V0H408V107L419 88Q400 38 357 13T255 -12ZM358 640L475 805H630L748 640H618L553
730L488 640H358Z" />
<glyph unicode="&#xfc;" horiz-adv-x="593" d="M255 -12Q192 -12 146 16T75 94T50 211V544H181V222Q181 188 194 163T233 123T291 108Q323 108 348 122T387 163T401 225V544H532V0H408V107L419 88Q400 38 357 13T255 -12ZM376 640V778H513V640H376ZM593 640V778H731V640H593Z"
/>
<glyph unicode="&#xfd;" horiz-adv-x="586" d="M127 -221Q105 -221 84 -218T46 -206V-96Q59 -99 77 -102T112 -105Q157 -105 177 -84T214 -29L250 55L248 -55L11 544H152L318 102H268L433 544H575L338 -55Q317 -108 287 -145T218 -201T127 -221ZM228 640L293 813H463L357
640H228Z" />
<glyph unicode="&#xfe;" horiz-adv-x="672" d="M61 -200V745H184V436L172 463Q200 507 248 531T359 556Q436 556 498 518T596 416T633 272Q633 193 597 128T499 26T358 -12Q299 -12 250 11T171 79L192 105V-200H61ZM343 108Q388 108 423 129T477 187T497 272Q497
320 478 356T423 414T343 436Q300 436 266 415T212 357T192 272Q192 224 211 187T265 129T343 108Z" />
<glyph unicode="&#xff;" horiz-adv-x="586" d="M127 -221Q105 -221 84 -218T46 -206V-96Q59 -99 77 -102T112 -105Q157 -105 177 -84T214 -29L250 55L248 -55L11 544H152L318 102H268L433 544H575L338 -55Q317 -108 287 -145T218 -201T127 -221ZM372 640V778H509V640H372ZM589
640V778H727V640H589Z" />
<glyph unicode="&#x2013;" horiz-adv-x="655" d="M88 214V329H568V214H88Z" />
<glyph unicode="&#x2014;" horiz-adv-x="985" d="M88 214V329H898V214H88Z" />
<glyph unicode="&#x2018;" horiz-adv-x="357" d="M103 471V557Q103 638 141 689T255 757V692Q221 684 201 663T175 611H235V471H103Z" />
<glyph unicode="&#x2019;" horiz-adv-x="357" d="M103 459V524Q136 532 156 553T182 605H123V745H255V659Q255 578 217 527T103 459Z" />
<glyph unicode="&#x201a;" horiz-adv-x="357" d="M103 -146V-81Q136 -73 156 -52T182 0H123V140H255V54Q255 -27 217 -78T103 -146Z" />
<glyph unicode="&#x201c;" horiz-adv-x="560" d="M305 471V557Q305 638 343 689T458 757V692Q424 684 404 663T378 611H438V471H305ZM103 471V557Q103 638 141 689T255 757V692Q221 684 201 663T175 611H235V471H103Z" />
<glyph unicode="&#x201d;" horiz-adv-x="560" d="M305 459V524Q339 532 359 553T385 605H325V745H458V659Q458 578 420 527T305 459ZM103 459V524Q136 532 156 553T182 605H123V745H255V659Q255 578 217 527T103 459Z" />
<glyph unicode="&#x201e;" horiz-adv-x="560" d="M103 -146V-81Q136 -73 156 -52T182 0H123V140H255V54Q255 -27 217 -78T103 -146ZM305 -146V-81Q339 -73 359 -52T385 0H325V140H458V54Q458 -27 420 -78T305 -146Z" />
<glyph unicode="&#x2022;" horiz-adv-x="658" d="M332 62Q273 62 226 89T151 164T123 272Q123 329 150 374T224 447T332 474Q390 474 435 447T507 374T535 272Q535 212 508 164T436 89T332 62Z" />
<glyph unicode="&#x2039;" horiz-adv-x="389" d="M198 72L45 269L198 467H343L191 269L343 72H198Z" />
<glyph unicode="&#x203a;" horiz-adv-x="389" d="M46 72L198 269L46 467H190L344 269L190 72H46Z" />
</font>
</defs>
</svg>
