<?xml version="1.0" standalone="no"?>
<!DOCTYPE svg PUBLIC "-//W3C//DTD SVG 1.1//EN" "http://www.w3.org/Graphics/SVG/1.1/DTD/svg11.dtd">
<svg xmlns="http://www.w3.org/2000/svg">
<defs >
<font id="PlusJakartaSans" horiz-adv-x="585" ><font-face
    font-family="Plus Jakarta Sans Medium"
    units-per-em="1000"
    panose-1="0 0 0 0 0 0 0 0 0 0"
    ascent="1038"
    descent="-222"
    alphabetic="0" />
<glyph unicode=" " horiz-adv-x="173" />
<glyph unicode="!" horiz-adv-x="312" d="M113 218L107 745H205L198 218H113ZM107 0V120H205V0H107Z" />
<glyph unicode="&quot;" horiz-adv-x="429" d="M101 505L87 745H179L166 505H101ZM263 505L249 745H342L328 505H263Z" />
<glyph unicode="#" horiz-adv-x="832" d="M114 0L167 185H47V270H191L251 476H131V561H275L328 745H425L372 561H567L620 745H718L665 561H785V476H640L581 270H701V185H557L504 0H406L459 185H264L211 0H114ZM289 270H484L543 476H348L289 270Z" />
<glyph unicode="$" horiz-adv-x="646" d="M339 -12Q268 -12 209 14T109 87T50 190L135 225Q162 153 215 115T341 76Q385 76 418 90T469 129T488 189Q488 236 462 263T384 305L247 347Q166 372 123 426T80 550Q80 611 109 657T191 730T311 757Q378 757 432 733T525
669T581 576L497 541Q473 604 425 636T312 669Q272 669 242 656T195 617T178 556Q178 515 204 483T283 434L408 397Q496 370 541 320T586 196Q586 135 555 88T468 15T339 -12ZM294 -100V845H369V-100H294Z" />
<glyph unicode="%" horiz-adv-x="998" d="M143 0L751 745H862L254 0H143ZM255 367Q200 367 156 393T86 464T59 562Q59 616 85 660T156 731T255 757Q309 757 353 731T423 661T449 562Q449 508 423 464T353 394T255 367ZM254 449Q288 449 312 465T350 507T364 562Q364
592 350 617T312 659T254 676Q222 676 197 660T158 617T144 562Q144 534 158 508T197 465T254 449ZM744 -12Q689 -12 645 14T575 85T548 183Q548 237 574 281T645 352T744 378Q798 378 842 352T912 282T938 183Q938 129 912 85T842 15T744 -12ZM744 70Q777 70 801
86T839 128T853 183Q853 213 840 238T802 280T744 297Q712 297 687 281T647 238T633 183Q633 155 647 129T686 86T744 70Z" />
<glyph unicode="&amp;" horiz-adv-x="754" d="M279 -12Q216 -12 167 11T91 78T63 179Q63 228 81 265T125 330T179 375T225 405L282 438Q311 455 338 475T383 521T401 581Q401 620 375 646T310 672Q271 672 245 646T219 580Q219 553 232 527T264 478T302 434L707
0H584L229 374Q205 399 181 429T141 495T124 576Q124 630 149 670T217 734T310 757Q360 757 401 735T468 672T493 580Q493 527 468 488T408 421T342 375L286 341Q261 325 233 304T185 253T165 181Q165 131 197 103T282 75Q315 75 341 86T387 115T424 154T454 197L569
368H676L541 162Q526 137 503 107T449 50T377 6T279 -12Z" />
<glyph unicode="&apos;" horiz-adv-x="267" d="M101 505L87 745H179L166 505H101Z" />
<glyph unicode="(" horiz-adv-x="323" d="M218 -150Q137 -57 95 56T53 298Q53 427 95 540T218 745H298Q226 643 189 530T152 298Q152 180 189 67T298 -150H218Z" />
<glyph unicode=")" horiz-adv-x="323" d="M26 -150Q97 -47 134 66T171 298Q171 416 134 529T26 745H106Q187 653 228 540T270 298Q270 170 229 57T106 -150H26Z" />
<glyph unicode="*" horiz-adv-x="499" d="M167 377L101 424L183 533L60 575L85 652L209 611V745H290V611L414 652L439 575L316 533L397 424L332 377L249 486L167 377Z" />
<glyph unicode="+" horiz-adv-x="624" d="M269 0V207H62V294H269V500H356V294H562V207H356V0H269Z" />
<glyph unicode="," horiz-adv-x="299" d="M88 -139V-94Q119 -86 135 -63T153 0H108V120H205V35Q205 -37 176 -81T88 -139Z" />
<glyph unicode="-" horiz-adv-x="532" d="M79 227V312H454V227H79Z" />
<glyph unicode="." horiz-adv-x="317" d="M110 0V120H207V0H110Z" />
<glyph unicode="/" horiz-adv-x="455" d="M7 -120L343 704H448L112 -120H7Z" />
<glyph unicode="0" horiz-adv-x="724" d="M363 -12Q274 -12 208 36T104 171T67 373Q67 488 104 574T207 709T362 757Q451 757 517 709T620 575T658 373Q658 258 621 171T518 36T363 -12ZM363 79Q423 79 467 115T535 218T560 373Q560 462 536 528T467 630T362 666Q302
666 258 630T190 528T165 373Q165 285 189 219T258 116T363 79Z" />
<glyph unicode="1" horiz-adv-x="382" d="M178 0V660H37V745H277V0H178Z" />
<glyph unicode="2" horiz-adv-x="599" d="M54 0V68L260 291Q321 356 357 398T411 473T428 543Q428 604 392 637T297 670Q237 670 195 636T137 538L48 561Q61 621 96 665T183 733T297 757Q365 757 416 731T497 657T527 548Q527 507 510 468T460 386T374 285L190
85H543V0H54Z" />
<glyph unicode="3" horiz-adv-x="610" d="M294 -12Q235 -12 184 9T96 68T41 160L124 194Q145 138 190 107T294 76Q340 76 376 94T432 146T453 228Q453 277 433 310T376 362T293 380Q278 380 261 378T231 372L210 417L409 660H79V745H520V663L330 429L324 455Q391
453 442 424T522 346T551 230Q551 162 518 107T427 20T294 -12Z" />
<glyph unicode="4" horiz-adv-x="638" d="M409 0V172H43V253L407 745H501V253H598V172H501V0H409ZM117 218L103 253H409V663L438 655L117 218Z" />
<glyph unicode="5" horiz-adv-x="616" d="M300 -12Q242 -12 191 8T103 67T48 158L128 192Q149 137 196 107T300 76Q346 76 381 96T437 153T457 235Q457 282 437 318T381 374T301 395Q255 395 217 374T162 321L83 338L140 745H526V660H177L215 698L171 382L137
402Q170 444 214 462T311 481Q384 481 439 448T525 360T556 235Q556 165 523 109T432 21T300 -12Z" />
<glyph unicode="6" horiz-adv-x="599" d="M301 -12Q229 -12 174 20T86 107T54 234Q54 273 63 311T92 388T143 469L353 745H471L214 411L196 413Q211 433 229 444T269 460T315 465Q381 465 433 435T516 351T547 229Q547 160 515 106T428 20T301 -12ZM301 76Q343
76 376 95T428 150T448 228Q448 273 429 306T377 360T301 380Q259 380 225 360T172 307T153 228Q153 185 172 150T225 96T301 76Z" />
<glyph unicode="7" horiz-adv-x="548" d="M77 0L404 660H39V745H507V660L183 0H77Z" />
<glyph unicode="8" horiz-adv-x="629" d="M315 -12Q240 -12 183 18T93 99T60 215Q60 287 100 341T210 418L208 393Q155 414 126 460T96 561Q96 618 124 662T202 731T315 757Q378 757 427 732T504 663T533 561Q533 504 503 459T422 392L419 418Q490 395 530 341T570
215Q570 151 538 100T448 18T315 -12ZM315 73Q362 73 397 91T451 141T471 216Q471 259 452 291T397 341T315 359Q268 359 233 342T178 292T159 216Q159 174 178 142T232 91T315 73ZM315 444Q349 444 375 459T418 499T434 559Q434 593 418 618T376 657T315 672Q280
672 253 658T210 618T194 559Q194 525 210 500T253 459T315 444Z" />
<glyph unicode="9" horiz-adv-x="599" d="M128 0L385 335L403 333Q388 313 370 302T331 285T284 280Q218 280 166 310T83 394T52 517Q52 586 84 640T172 725T298 757Q370 757 425 726T513 639T545 511Q545 472 536 434T508 357T456 276L246 0H128ZM298 366Q341
366 374 385T427 439T446 517Q446 562 427 596T374 650T298 670Q256 670 223 650T171 596T151 517Q151 474 170 440T222 386T298 366Z" />
<glyph unicode=":" horiz-adv-x="317" d="M110 0V120H207V0H110ZM110 419V539H207V419H110Z" />
<glyph unicode=";" horiz-adv-x="337" d="M110 -139V-97Q141 -89 158 -65T179 0H130V120H227V35Q227 -37 198 -81T110 -139ZM130 419V539H227V419H130Z" />
<glyph unicode="&lt;" horiz-adv-x="624" d="M542 30L115 225V313L542 509V410L187 252V287L542 129V30Z" />
<glyph unicode="=" horiz-adv-x="624" d="M87 321V409H537V321H87ZM87 84V171H537V84H87Z" />
<glyph unicode="&gt;" horiz-adv-x="624" d="M83 30V129L437 287V252L83 410V509L509 313V225L83 30Z" />
<glyph unicode="?" horiz-adv-x="527" d="M182 218V231Q182 276 197 310T236 372T286 424Q321 459 349 492T378 570Q378 596 365 619T327 656T264 670Q213 670 176 638T130 553L42 573Q51 628 81 669T159 734T265 757Q330 757 377 731T451 662T477 571Q477 527
459 494T414 432T359 376Q326 344 302 310T277 229V218H182ZM183 0V120H280V0H183Z" />
<glyph unicode="@" horiz-adv-x="928" d="M483 -211Q393 -211 316 -180T182 -91T93 42T61 209Q61 298 93 374T182 506T316 594T482 626Q574 626 650 593T781 503T867 371T898 212Q898 148 878 101T819 27T729 0Q697 0 667 12T617 48T591 107L610 82Q596 55 573
37T520 10T456 0Q398 0 352 28T278 104T250 213Q250 274 277 322T351 400T458 429Q507 429 547 410T607 356L599 336V419H673V151Q673 114 688 97T731 79Q770 79 791 111T812 212Q812 283 789 343T722 449T619 520T483 546Q410 546 349 521T242 450T172 344T147
210Q147 138 171 76T241 -32T347 -105T484 -131Q530 -131 572 -121T649 -90L686 -159Q598 -211 483 -211ZM462 79Q499 79 528 97T573 145T590 215Q590 273 554 310T462 349Q426 349 397 332T351 284T334 214Q334 176 351 146T397 97T462 79Z" />
<glyph unicode="A" horiz-adv-x="672" d="M11 0L278 745H394L661 0H556L495 175H177L116 0H11ZM208 265H464L322 674H350L208 265Z" />
<glyph unicode="B" horiz-adv-x="692" d="M83 0V745H396Q463 745 511 721T586 654T613 550Q613 495 585 451T501 381L500 418Q548 400 579 371T627 303T643 221Q643 118 577 59T397 0H83ZM181 90H401Q466 90 505 125T544 220Q544 280 505 315T401 351H181V90ZM181
439H394Q448 439 481 470T514 551Q514 602 481 629T394 656H181V439Z" />
<glyph unicode="C" horiz-adv-x="779" d="M426 -12Q347 -12 281 16T165 97T88 219T61 372Q61 456 88 526T164 648T280 728T426 757Q503 757 564 730T668 660T729 568L639 527Q613 589 558 627T426 666Q348 666 288 629T193 526T159 372Q159 285 193 219T287 116T426
79Q503 79 558 117T639 218L729 177Q711 128 669 85T565 15T426 -12Z" />
<glyph unicode="D" horiz-adv-x="741" d="M83 0V745H327Q440 745 524 699T654 570T700 373Q700 261 654 177T524 47T327 0H83ZM181 90H328Q411 90 471 125T565 223T598 373Q598 460 565 523T471 620T328 655H181V90Z" />
<glyph unicode="E" horiz-adv-x="606" d="M83 0V745H568V655H181V419H548V329H181V90H568V0H83Z" />
<glyph unicode="F" horiz-adv-x="583" d="M83 0V745H555V655H181V414H520V324H181V0H83Z" />
<glyph unicode="G" horiz-adv-x="817" d="M427 -12Q348 -12 281 16T165 97T89 219T61 372Q61 456 88 526T164 648T280 728T426 757Q503 757 564 730T668 660T729 568L641 525Q615 590 560 628T426 666Q348 666 288 629T193 526T159 372Q159 285 193 219T288 116T427
79Q495 79 550 108T637 188T669 306V352L714 310H426V395H768V329Q768 251 741 188T667 81T558 12T427 -12Z" />
<glyph unicode="H" horiz-adv-x="735" d="M83 0V745H181V413H554V745H653V0H554V323H181V0H83Z" />
<glyph unicode="I" horiz-adv-x="264" d="M83 0V745H181V0H83Z" />
<glyph unicode="J" horiz-adv-x="386" d="M50 0V95H91Q144 95 175 126T206 212V745H305V214Q305 149 279 101T204 27T91 0H50Z" />
<glyph unicode="K" horiz-adv-x="662" d="M83 0V745H181V326L157 336L513 745H636L337 400L342 470L651 0H534L298 354L181 220V0H83Z" />
<glyph unicode="L" horiz-adv-x="535" d="M83 0V745H181V90H508V0H83Z" />
<glyph unicode="M" horiz-adv-x="855" d="M83 0V745H173L452 348H406L683 745H773V0H674V621L709 610L432 220H424L150 610L181 621V0H83Z" />
<glyph unicode="N" horiz-adv-x="738" d="M83 0V745H165L593 143L556 139V745H655V0H573L147 606L181 610V0H83Z" />
<glyph unicode="O" horiz-adv-x="878" d="M439 -12Q360 -12 291 16T171 97T90 219T61 373Q61 457 90 527T170 649T290 729T439 757Q519 757 587 729T707 649T788 527T818 373Q818 290 789 220T708 97T588 17T439 -12ZM439 79Q501 79 552 101T640 164T698 258T719
373Q719 434 699 487T641 580T552 643T439 666Q378 666 327 644T239 581T180 487T159 373Q159 312 180 259T238 165T327 102T439 79Z" />
<glyph unicode="P" horiz-adv-x="645" d="M83 0V745H346Q420 745 476 717T563 637T595 515Q595 445 564 394T477 314T346 285H181V0H83ZM181 375H349Q394 375 427 392T478 441T496 515Q496 558 478 589T427 638T349 655H181V375Z" />
<glyph unicode="Q" horiz-adv-x="878" d="M439 -12Q360 -12 291 16T171 97T90 219T61 373Q61 457 90 527T170 649T290 729T439 757Q519 757 587 729T707 649T788 527T818 373Q818 290 789 220T708 97T588 17T439 -12ZM439 79Q501 79 552 101T640 164T698 258T719
373Q719 434 699 487T641 580T552 643T439 666Q378 666 327 644T239 581T180 487T159 373Q159 312 180 259T238 165T327 102T439 79ZM640 -90L386 298H494L749 -90H640Z" />
<glyph unicode="R" horiz-adv-x="648" d="M83 0V745H346Q420 745 476 717T563 637T595 515Q595 436 555 381T447 302L620 0H506L324 323L389 285H181V0H83ZM181 375H349Q393 375 426 392T477 441T496 515Q496 558 478 589T426 638T349 655H181V375Z" />
<glyph unicode="S" horiz-adv-x="646" d="M339 -12Q268 -12 209 14T109 87T50 190L135 225Q162 153 215 115T341 76Q385 76 418 90T469 129T488 189Q488 236 462 263T384 305L247 347Q166 372 123 426T80 550Q80 611 109 657T191 730T311 757Q378 757 432 733T525
669T581 576L497 541Q473 604 425 636T312 669Q272 669 242 656T195 617T178 556Q178 515 204 483T283 434L408 397Q496 370 541 320T586 196Q586 135 555 88T468 15T339 -12Z" />
<glyph unicode="T" horiz-adv-x="522" d="M213 0V655H11V745H511V655H312V0H213Z" />
<glyph unicode="U" horiz-adv-x="706" d="M353 -12Q272 -12 210 22T113 115T78 251V745H177V253Q177 202 199 163T261 101T353 79Q405 79 444 101T506 162T529 253V745H628V251Q628 175 594 116T497 22T353 -12Z" />
<glyph unicode="V" horiz-adv-x="667" d="M280 0L11 745H116L344 90H323L551 745H656L388 0H280Z" />
<glyph unicode="W" horiz-adv-x="996" d="M220 0L11 745H114L289 89H265L447 745H550L731 89H706L882 745H985L776 0H667L485 653H511L329 0H220Z" />
<glyph unicode="X" horiz-adv-x="618" d="M11 0L254 378L17 745H129L330 432H288L489 745H601L364 378L607 0H495L288 324H330L122 0H11Z" />
<glyph unicode="Y" horiz-adv-x="635" d="M269 0V341L11 745H122L338 406H298L513 745H624L368 341V0H269Z" />
<glyph unicode="Z" horiz-adv-x="580" d="M19 0V72L424 655H43V745H551V673L148 90H561V0H19Z" />
<glyph unicode="[" horiz-adv-x="349" d="M94 -150V745H314V660H191V-65H314V-150H94Z" />
<glyph unicode="\" horiz-adv-x="455" d="M343 -120L7 705H112L448 -120H343Z" />
<glyph unicode="]" horiz-adv-x="349" d="M35 -150V-65H158V660H35V745H255V-150H35Z" />
<glyph unicode="^" horiz-adv-x="624" d="M99 423L268 745H357L526 423H420L293 670H334L204 423H99Z" />
<glyph unicode="_" horiz-adv-x="620" d="M79 -85V0H541V-85H79Z" />
<glyph unicode="`" horiz-adv-x="362" d="M221 640L110 798H235L315 640H221Z" />
<glyph unicode="a" horiz-adv-x="575" d="M230 -12Q177 -12 137 7T73 61T50 141Q50 184 68 218T126 277T226 311L426 344V266L247 236Q195 227 172 203T148 144Q148 111 174 89T241 67Q292 67 329 88T388 147T410 229V366Q410 410 378 437T292 465Q246 465 211
442T158 379L77 421Q92 458 125 487T202 534T294 551Q356 551 403 528T476 463T503 366V0H412V102L429 96Q412 64 383 40T315 2T230 -12Z" />
<glyph unicode="b" horiz-adv-x="669" d="M351 -12Q286 -12 233 17T150 99L163 115V0H72V757H165V423L151 446Q181 494 233 522T352 551Q428 551 488 514T584 414T619 269Q619 190 584 126T489 25T351 -12ZM344 78Q395 78 435 103T497 171T520 269Q520 325 498
367T435 435T344 461Q293 461 253 436T189 368T165 269Q165 215 188 172T252 103T344 78Z" />
<glyph unicode="c" horiz-adv-x="603" d="M322 -12Q243 -12 182 25T85 126T50 270Q50 351 85 414T181 514T322 551Q375 551 421 532T502 481T553 406L470 366Q451 408 412 434T322 461Q273 461 234 436T171 368T148 269Q148 215 171 172T233 103T322 78Q373 78
412 104T470 175L553 133Q537 91 502 59T421 7T322 -12Z" />
<glyph unicode="d" horiz-adv-x="669" d="M317 -12Q241 -12 181 25T85 126T50 269Q50 350 85 413T180 514T317 551Q384 551 436 523T518 446L503 423V757H597V0H506V115L518 99Q490 46 437 17T317 -12ZM325 78Q376 78 416 103T479 171T503 269Q503 324 480 367T416
436T325 461Q275 461 235 436T171 368T148 269Q148 215 171 172T234 103T325 78Z" />
<glyph unicode="e" horiz-adv-x="614" d="M320 -12Q242 -12 181 25T85 126T50 271Q50 352 84 415T178 514T312 551Q372 551 418 530T497 472T547 389T565 292Q565 281 564 268T560 242H118V322H506L462 286Q471 338 452 379T396 444T312 468Q265 468 226 444T166
376T148 270Q144 211 166 167T230 98T321 73Q375 73 412 98T472 162L550 122Q534 85 501 55T422 6T320 -12Z" />
<glyph unicode="f" horiz-adv-x="397" d="M129 0V450H26V539H129V577Q129 635 154 675T222 736T317 757Q328 757 341 756T364 752V669Q356 671 345 671T328 672Q282 672 253 650T223 577V539H351V450H223V0H129Z" />
<glyph unicode="g" horiz-adv-x="659" d="M329 -220Q272 -220 224 -202T141 -153T88 -79L175 -39Q189 -77 228 -103T328 -130Q374 -130 411 -113T471 -61T493 23V144L510 126Q482 71 430 42T314 13Q238 13 178 48T84 145T50 282Q50 358 84 419T177 515T313 551Q376
551 427 523T510 444L496 419V539H587V23Q587 -47 554 -102T463 -188T329 -220ZM322 103Q370 103 408 127T470 191T493 282Q493 331 470 372T409 437T322 461Q273 461 233 437T171 373T148 282Q148 232 170 192T232 127T322 103Z" />
<glyph unicode="h" horiz-adv-x="580" d="M72 0V757H165V434L148 443Q168 494 212 522T317 551Q375 551 420 525T492 453T519 349V0H425V319Q425 364 409 395T363 443T296 461Q259 461 229 444T182 395T165 319V0H72Z" />
<glyph unicode="i" horiz-adv-x="237" d="M72 0V539H165V0H72ZM72 625V745H165V625H72Z" />
<glyph unicode="j" horiz-adv-x="237" d="M-20 -220Q-29 -220 -42 -219T-63 -216V-132Q-43 -135 -23 -135Q18 -135 45 -112T72 -42V539H165V-42Q165 -100 141 -139T75 -199T-20 -220ZM72 625V745H165V625H72Z" />
<glyph unicode="k" horiz-adv-x="558" d="M72 0V757H165V238L127 247L413 539H532L325 322L546 0H436L234 292L292 295L135 131L165 199V0H72Z" />
<glyph unicode="l" horiz-adv-x="237" d="M72 0V757H165V0H72Z" />
<glyph unicode="m" horiz-adv-x="913" d="M72 0V539H163V429L150 446Q170 497 214 524T313 551Q376 551 426 516T496 424L470 423Q491 486 541 518T652 551Q708 551 753 525T826 453T853 349V0H759V319Q759 364 743 395T700 443T635 461Q599 461 571 444T526 395T509
319V0H415V319Q415 364 399 395T356 443T291 461Q255 461 227 444T182 395T165 319V0H72Z" />
<glyph unicode="n" horiz-adv-x="580" d="M72 0V539H163V434L148 443Q168 494 212 522T317 551Q375 551 420 525T492 453T519 349V0H425V319Q425 364 409 395T364 443T296 461Q258 461 229 444T182 395T165 319V0H72Z" />
<glyph unicode="o" horiz-adv-x="654" d="M328 -12Q250 -12 187 24T87 125T50 270Q50 351 86 414T186 514T328 551Q406 551 469 515T568 415T605 270Q605 188 567 125T467 25T328 -12ZM328 78Q378 78 418 103T482 172T506 270Q506 325 483 367T419 435T328 461Q277
461 237 436T172 368T148 270Q148 216 172 172T236 103T328 78Z" />
<glyph unicode="p" horiz-adv-x="669" d="M72 -200V539H163V423L151 446Q181 494 233 522T352 551Q428 551 488 514T584 414T619 269Q619 190 584 126T489 25T351 -12Q286 -12 233 17T150 99L165 115V-200H72ZM344 78Q395 78 435 103T497 171T520 269Q520 325
498 367T435 435T344 461Q293 461 253 436T189 368T165 269Q165 215 188 172T252 103T344 78Z" />
<glyph unicode="q" horiz-adv-x="669" d="M503 -200V115L518 99Q490 46 437 17T317 -12Q241 -12 181 25T85 126T50 269Q50 350 85 413T180 514T317 551Q384 551 436 523T518 446L506 423V539H597V-200H503ZM325 78Q376 78 416 103T479 171T503 269Q503 324 480
367T416 436T325 461Q275 461 235 436T171 368T148 269Q148 215 171 172T234 103T325 78Z" />
<glyph unicode="r" horiz-adv-x="350" d="M72 0V539H163V440L153 454Q172 500 211 522T306 545H339V457H292Q235 457 200 422T165 321V0H72Z" />
<glyph unicode="s" horiz-adv-x="511" d="M265 -12Q184 -12 124 28T39 136L113 172Q136 124 176 96T265 68Q309 68 338 89T367 144Q367 168 354 182T321 205T286 218L205 241Q132 262 99 301T65 392Q65 440 89 475T156 531T252 551Q323 551 379 515T460 414L384
379Q366 421 330 445T249 470Q208 470 184 450T160 398Q160 375 172 361T201 339T234 326L322 300Q388 281 424 241T461 145Q461 100 436 64T367 8T265 -12Z" />
<glyph unicode="t" horiz-adv-x="396" d="M291 -6Q212 -6 170 39T127 166V450H29V539H49Q85 539 106 561T127 619V663H220V539H341V450H220V169Q220 142 228 122T257 91T310 79Q317 79 327 80T347 82V0Q334 -3 318 -4T291 -6Z" />
<glyph unicode="u" horiz-adv-x="580" d="M263 -12Q205 -12 159 15T87 90T61 202V539H154V212Q154 172 170 142T216 95T284 78Q322 78 351 95T397 144T414 220V539H508V0H417V105L432 96Q413 45 368 17T263 -12Z" />
<glyph unicode="v" horiz-adv-x="533" d="M222 0L11 539H115L284 83H248L418 539H522L310 0H222Z" />
<glyph unicode="w" horiz-adv-x="826" d="M196 0L11 539H114L261 88L225 89L369 539H457L601 89L565 88L713 539H815L630 0H541L399 450H427L285 0H196Z" />
<glyph unicode="x" horiz-adv-x="511" d="M11 0L200 270L12 539H124L285 305H228L387 539H500L312 270L499 0H387L228 234H284L125 0H11Z" />
<glyph unicode="y" horiz-adv-x="553" d="M101 -220Q83 -220 65 -218T31 -208V-125Q42 -126 58 -129T91 -132Q138 -132 162 -111T209 -40L243 41L241 -40L11 539H112L291 79H261L439 539H542L299 -64Q282 -107 256 -143T191 -199T101 -220Z" />
<glyph unicode="z" horiz-adv-x="460" d="M19 0V79L340 484L356 450H35V539H439V460L121 54L105 89H441V0H19Z" />
<glyph unicode="{" horiz-adv-x="344" d="M271 -150Q200 -150 158 -110T116 -2V185Q116 216 102 234T56 253H27V338H56Q87 338 101 356T116 406V598Q116 665 158 705T271 745H309V660H271Q244 660 229 643T214 597V413Q215 377 202 348T162 296Q187 278 201 248T214
183V-1Q213 -29 228 -47T271 -65H309V-150H271Z" />
<glyph unicode="|" horiz-adv-x="332" d="M117 -190V845H215V-190H117Z" />
<glyph unicode="}" horiz-adv-x="344" d="M35 -150V-65H73Q100 -65 116 -47T131 -1V183Q130 217 143 247T182 296Q156 318 143 347T131 413V597Q132 626 116 643T73 660H35V745H73Q145 745 186 705T228 598V406Q228 375 243 357T288 338H317V253H288Q258 253 243
235T228 185V-2Q228 -70 187 -110T73 -150H35Z" />
<glyph unicode="~" horiz-adv-x="624" d="M410 210Q377 210 354 220T311 244T273 268T231 279Q204 279 186 262T164 214H83Q89 287 125 324T220 362Q253 362 276 352T319 328T357 304T399 293Q424 293 440 308T462 358H542Q536 286 503 248T410 210Z" />
<glyph unicode="&#xa0;" horiz-adv-x="173" />
<glyph unicode="&#xa1;" horiz-adv-x="312" d="M107 -206L113 321H198L205 -206H107ZM107 419V539H205V419H107Z" />
<glyph unicode="&#xa2;" horiz-adv-x="603" d="M322 92Q243 92 182 129T85 230T50 374Q50 454 85 517T181 617T322 654Q375 654 421 636T502 585T553 510L470 469Q451 512 412 538T322 564Q273 564 234 540T171 472T148 373Q148 319 171 276T233 207T322 182Q373
182 412 208T470 278L553 236Q537 195 502 163T421 111T322 92ZM279 0V745H354V0H279Z" />
<glyph unicode="&#xa3;" horiz-adv-x="650" d="M41 0V85H141V531Q141 599 170 649T253 728T378 757Q439 757 488 734T569 668T609 566L520 543Q513 605 474 637T378 670Q313 670 277 634T240 531V85H574V0H41ZM41 343V414H414V343H41Z" />
<glyph unicode="&#xa4;" horiz-adv-x="590" d="M108 24L50 82L127 158Q111 182 102 210T92 269Q92 299 101 327T127 380L50 457L108 515L185 438Q209 454 237 463T295 472Q325 472 353 463T406 438L483 515L541 457L464 380Q480 355 489 328T498 269Q498 238 489
210T464 158L541 82L483 24L406 100Q382 85 354 76T295 66Q267 66 239 74T185 100L108 24ZM295 156Q326 156 351 171T392 212T408 269Q408 301 393 326T352 367T295 383Q264 383 238 368T197 327T181 269Q181 238 196 212T238 171T295 156Z" />
<glyph unicode="&#xa5;" horiz-adv-x="635" d="M269 0V341L11 745H122L338 406H298L513 745H624L368 341V0H269ZM131 302V373H504V302H131ZM131 150V222H504V150H131Z" />
<glyph unicode="&#xa6;" horiz-adv-x="332" d="M117 428V845H215V428H117ZM117 -190V228H215V-190H117Z" />
<glyph unicode="&#xa7;" horiz-adv-x="531" d="M276 -102Q191 -102 128 -61T39 53L115 89Q140 38 182 9T276 -21Q323 -21 354 2T385 61Q385 86 372 102T338 127T299 142L213 167Q137 189 102 229T66 324Q66 374 92 411T162 470T262 491L259 433Q215 433 189 408T162
343Q162 315 175 297T207 269T246 252L335 226Q404 205 442 163T481 63Q481 15 455 -22T383 -81T276 -102ZM276 164V220Q323 220 354 246T385 315Q385 343 371 361T336 391T294 409L213 433Q137 455 102 495T66 590Q66 640 92 677T162 736T262 757Q335 757 394
720T479 615L402 578Q382 623 344 648T259 674Q215 674 189 653T162 596Q162 572 175 557T206 533T241 519L335 492Q404 471 442 429T481 329Q481 281 455 244T383 185T276 164Z" />
<glyph unicode="&#xa8;" horiz-adv-x="469" d="M110 640V753H222V640H110ZM302 640V753H415V640H302Z" />
<glyph unicode="&#xa9;" horiz-adv-x="909" d="M455 -12Q375 -12 305 17T182 100T100 223T70 373Q70 453 99 522T182 644T304 727T455 757Q535 757 604 727T727 645T809 523T839 373Q839 293 810 223T727 100T605 18T455 -12ZM455 66Q520 66 575 89T673 155T738
253T762 373Q762 437 739 492T673 590T576 656T455 680Q391 680 335 657T237 591T172 494T148 373Q148 309 171 253T237 155T335 90T455 66ZM461 163Q403 163 357 190T284 265T257 373Q257 434 283 481T356 555T461 582Q504 582 539 568T599 529T633 475L562 443Q551
471 525 490T461 510Q406 510 372 472T337 373Q337 312 371 274T461 236Q497 236 523 254T562 302L633 270Q623 241 599 217T540 178T461 163Z" />
<glyph unicode="&#xaa;" horiz-adv-x="452" d="M180 359Q121 359 86 388T50 467Q50 515 82 546T179 588L308 610V544L195 525Q165 519 151 506T137 471Q137 450 153 437T193 424Q224 424 247 437T284 473T297 524V621Q297 648 277 665T223 682Q193 682 170 666T136
624L66 658Q83 703 128 729T226 755Q295 755 337 718T380 621V367H301V435L318 434Q297 399 263 379T180 359Z" />
<glyph unicode="&#xab;" d="M187 77L34 269L187 462H295L143 269L295 77H187ZM442 77L289 269L442 462H550L398 269L550 77H442Z" />
<glyph unicode="&#xac;" horiz-adv-x="624" d="M475 40V207H62V294H562V40H475Z" />
<glyph unicode="&#xad;" horiz-adv-x="532" d="M79 227V312H454V227H79Z" />
<glyph unicode="&#xae;" horiz-adv-x="653" d="M327 272Q256 272 198 306T105 399T70 528Q70 599 104 657T197 749T327 784Q380 784 426 764T508 709T563 628T583 528Q583 458 549 400T456 307T327 272ZM327 334Q381 334 424 359T494 429T521 528Q521 582 495
626T425 696T327 722Q272 722 228 696T158 626T132 528Q132 474 158 430T228 360T327 334ZM225 394V664H338Q380 664 408 642T436 576Q436 547 424 528T388 498L449 394H379L326 488H289V394H225ZM289 543H338Q354 543 363 552T372 576Q372 590 363 599T338 608H289V543Z"
/>
<glyph unicode="&#xaf;" horiz-adv-x="445" d="M110 660V743H397V660H110Z" />
<glyph unicode="&#xb0;" horiz-adv-x="500" d="M250 434Q204 434 167 455T109 513T87 595Q87 641 108 677T167 735T250 757Q296 757 332 736T390 678T412 595Q412 550 391 514T333 456T250 434ZM249 506Q286 506 313 531T340 595Q340 636 313 661T249 686Q212
686 186 661T160 595Q160 556 186 531T249 506Z" />
<glyph unicode="&#xb1;" horiz-adv-x="624" d="M269 158V322H62V409H269V573H356V409H562V322H356V158H269ZM62 0V88H562V0H62Z" />
<glyph unicode="&#xb2;" horiz-adv-x="421" d="M34 223V288L177 439Q217 482 241 509T275 556T286 598Q286 635 264 654T207 674Q171 674 145 654T108 594L31 617Q40 660 65 690T128 736T207 753Q257 753 294 734T352 683T373 607Q373 559 347 519T274 430L149
298H383V223H34Z" />
<glyph unicode="&#xb3;" horiz-adv-x="432" d="M209 215Q168 215 131 230T67 274T29 340L104 368Q117 333 145 313T209 293Q253 293 280 318T308 387Q308 430 281 455T209 480Q182 480 159 471L139 511L276 671H58V745H374V675L240 515L239 545Q286 544 321 525T375
470T395 389Q395 339 371 300T305 238T209 215Z" />
<glyph unicode="&#xb4;" horiz-adv-x="362" d="M110 640L189 798H315L203 640H110Z" />
<glyph unicode="&#xb5;" horiz-adv-x="580" d="M61 -140V539H154V212Q154 172 170 142T216 95T284 78Q322 78 351 95T397 144T414 220V539H508V0H417V110L429 93Q410 43 366 16T263 -12Q225 -12 191 1T132 36L154 66V-140H61Z" />
<glyph unicode="&#xb6;" horiz-adv-x="453" d="M238 -100V385Q185 385 145 408T80 473T56 565Q56 617 80 657T144 721T238 745H336V-100H238Z" />
<glyph unicode="&#xb7;" horiz-adv-x="317" d="M110 209V329H207V209H110Z" />
<glyph unicode="&#xb8;" horiz-adv-x="382" d="M217 -232Q189 -232 159 -223T110 -197L133 -136Q148 -149 167 -156T204 -163Q226 -163 239 -153T252 -125Q252 -103 229 -91T156 -72L179 10H240L229 -35Q281 -45 308 -70T336 -131Q336 -176 303 -204T217 -232Z" />
<glyph unicode="&#xb9;" horiz-adv-x="306" d="M119 223V670H19V745H207V223H119Z" />
<glyph unicode="&#xba;" horiz-adv-x="498" d="M249 359Q195 359 150 384T77 455T50 557Q50 614 77 659T149 729T249 755Q305 755 350 730T421 659T448 557Q448 499 421 455T349 385T249 359ZM249 437Q282 437 306 453T345 496T360 557Q360 592 346 619T306 661T249
677Q217 677 192 662T152 619T137 557Q137 523 151 496T191 453T249 437Z" />
<glyph unicode="&#xbb;" d="M290 77L442 269L290 462H398L550 269L398 77H290ZM35 77L187 269L35 462H143L295 269L143 77H35Z" />
<glyph unicode="&#xbc;" horiz-adv-x="888" d="M100 328V678H19V745H179V328H100ZM118 0L564 745H650L204 0H118ZM714 0V92H523V158L709 417H792V158H854V92H792V0H714ZM581 129L567 158H714V355L734 349L581 129Z" />
<glyph unicode="&#xbd;" horiz-adv-x="843" d="M100 328V678H19V745H179V328H100ZM118 0L564 745H650L204 0H118ZM524 0V60L637 179Q668 210 685 230T711 267T720 298Q720 324 704 338T663 353Q638 353 618 338T590 294L521 317Q528 350 548 374T599 411T663 424Q724
424 761 391T799 307Q799 268 777 236T723 170L626 68H805V0H524Z" />
<glyph unicode="&#xbe;" horiz-adv-x="972" d="M175 321Q124 321 83 349T29 424L98 449Q108 422 128 408T175 393Q207 393 227 411T248 462Q248 493 229 510T175 528Q165 528 153 526T132 519L114 557L221 679H53V745H310V682L202 558V587Q258 587 292 553T326
463Q326 423 307 391T253 340T175 321ZM202 0L648 745H734L288 0H202ZM798 0V92H607V158L793 417H876V158H938V92H876V0H798ZM665 129L651 158H798V355L818 349L665 129Z" />
<glyph unicode="&#xbf;" horiz-adv-x="527" d="M262 -218Q197 -218 150 -192T77 -123T51 -32Q51 11 68 45T113 107T169 163Q201 195 226 230T251 310V321H346V307Q346 263 331 229T291 167T242 114Q207 80 178 48T149 -31Q149 -57 162 -80T201 -117T263 -131Q314
-131 351 -99T398 -14L486 -34Q477 -89 446 -130T368 -195T262 -218ZM247 419V539H344V419H247Z" />
<glyph unicode="&#xc0;" horiz-adv-x="672" d="M11 0L278 745H394L661 0H556L495 175H177L116 0H11ZM208 265H464L322 674H350L208 265ZM289 847L178 1005H303L383 847H289Z" />
<glyph unicode="&#xc1;" horiz-adv-x="672" d="M11 0L278 745H394L661 0H556L495 175H177L116 0H11ZM208 265H464L322 674H350L208 265ZM290 847L369 1005H495L383 847H290Z" />
<glyph unicode="&#xc2;" horiz-adv-x="672" d="M11 0L278 745H394L661 0H556L495 175H177L116 0H11ZM208 265H464L322 674H350L208 265ZM164 847L283 1002H390L510 847H408L337 938L266 847H164Z" />
<glyph unicode="&#xc3;" horiz-adv-x="672" d="M11 0L278 745H394L661 0H556L495 175H177L116 0H11ZM208 265H464L322 674H350L208 265ZM400 847Q373 847 357 856T328 877T304 898T275 907Q259 907 250 895T240 851H165Q165 918 194 951T271 985Q298 985 315 976T344
955T367 934T396 925Q414 925 424 939T434 981H508Q508 919 478 883T400 847Z" />
<glyph unicode="&#xc4;" horiz-adv-x="672" d="M11 0L278 745H394L661 0H556L495 175H177L116 0H11ZM208 265H464L322 674H350L208 265ZM184 847V960H296V847H184ZM376 847V960H489V847H376Z" />
<glyph unicode="&#xc5;" horiz-adv-x="672" d="M11 0L278 745H394L661 0H556L495 175H177L116 0H11ZM208 265H464L322 674H350L208 265ZM337 820Q290 820 256 850T222 931Q222 982 255 1012T337 1043Q384 1043 417 1013T451 931Q451 881 418 851T337 820ZM337
882Q357 882 371 895T385 931Q385 954 371 967T337 981Q317 981 303 968T288 931Q288 909 302 896T337 882Z" />
<glyph unicode="&#xc6;" horiz-adv-x="987" d="M11 0L278 745H949V655H562V419H929V329H562V90H949L948 0H463V175H177L116 0H11ZM208 265H463V655H344L208 265Z" />
<glyph unicode="&#xc7;" horiz-adv-x="779" d="M426 -12Q347 -12 281 16T165 97T88 219T61 372Q61 456 88 526T164 648T280 728T426 757Q503 757 564 730T668 660T729 568L639 527Q613 589 558 627T426 666Q348 666 288 629T193 526T159 372Q159 285 193 219T287
116T426 79Q503 79 558 117T639 218L729 177Q711 128 669 85T565 15T426 -12ZM438 -232Q410 -232 380 -223T331 -197L354 -136Q369 -149 388 -156T425 -163Q447 -163 460 -153T473 -125Q473 -103 450 -91T377 -72L400 10H461L450 -35Q502 -45 529 -70T557 -131Q557
-176 524 -204T438 -232Z" />
<glyph unicode="&#xc8;" horiz-adv-x="606" d="M83 0V745H568V655H181V419H548V329H181V90H568V0H83ZM279 847L168 1005H293L373 847H279Z" />
<glyph unicode="&#xc9;" horiz-adv-x="606" d="M83 0V745H568V655H181V419H548V329H181V90H568V0H83ZM279 847L358 1005H484L372 847H279Z" />
<glyph unicode="&#xca;" horiz-adv-x="606" d="M83 0V745H568V655H181V419H548V329H181V90H568V0H83ZM153 847L272 1002H379L499 847H397L326 938L255 847H153Z" />
<glyph unicode="&#xcb;" horiz-adv-x="606" d="M83 0V745H568V655H181V419H548V329H181V90H568V0H83ZM173 847V960H285V847H173ZM365 847V960H478V847H365Z" />
<glyph unicode="&#xcc;" horiz-adv-x="264" d="M83 0V745H181V0H83ZM85 847L-26 1005H99L179 847H85Z" />
<glyph unicode="&#xcd;" horiz-adv-x="264" d="M83 0V745H181V0H83ZM86 847L165 1005H291L179 847H86Z" />
<glyph unicode="&#xce;" horiz-adv-x="264" d="M83 0V745H181V0H83ZM-40 847L79 1002H186L306 847H204L133 938L62 847H-40Z" />
<glyph unicode="&#xcf;" horiz-adv-x="264" d="M83 0V745H181V0H83ZM-20 847V960H92V847H-20ZM172 847V960H285V847H172Z" />
<glyph unicode="&#xd0;" horiz-adv-x="741" d="M24 331V416H340V331H24ZM83 0V745H327Q440 745 524 699T654 570T700 373Q700 261 654 177T524 47T327 0H83ZM181 90H328Q411 90 471 125T565 223T598 373Q598 460 565 523T471 620T328 655H181V90Z" />
<glyph unicode="&#xd1;" horiz-adv-x="738" d="M83 0V745H165L593 143L556 139V745H655V0H573L147 606L181 610V0H83ZM433 847Q406 847 390 856T361 877T337 898T308 907Q292 907 283 895T273 851H198Q198 918 227 951T304 985Q331 985 348 976T377 955T400 934T429
925Q447 925 457 939T467 981H541Q541 919 511 883T433 847Z" />
<glyph unicode="&#xd2;" horiz-adv-x="878" d="M439 -12Q360 -12 291 16T171 97T90 219T61 373Q61 457 90 527T170 649T290 729T439 757Q519 757 587 729T707 649T788 527T818 373Q818 290 789 220T708 97T588 17T439 -12ZM439 79Q501 79 552 101T640 164T698
258T719 373Q719 434 699 487T641 580T552 643T439 666Q378 666 327 644T239 581T180 487T159 373Q159 312 180 259T238 165T327 102T439 79ZM392 847L281 1005H406L486 847H392Z" />
<glyph unicode="&#xd3;" horiz-adv-x="878" d="M439 -12Q360 -12 291 16T171 97T90 219T61 373Q61 457 90 527T170 649T290 729T439 757Q519 757 587 729T707 649T788 527T818 373Q818 290 789 220T708 97T588 17T439 -12ZM439 79Q501 79 552 101T640 164T698
258T719 373Q719 434 699 487T641 580T552 643T439 666Q378 666 327 644T239 581T180 487T159 373Q159 312 180 259T238 165T327 102T439 79ZM393 847L472 1005H598L486 847H393Z" />
<glyph unicode="&#xd4;" horiz-adv-x="878" d="M439 -12Q360 -12 291 16T171 97T90 219T61 373Q61 457 90 527T170 649T290 729T439 757Q519 757 587 729T707 649T788 527T818 373Q818 290 789 220T708 97T588 17T439 -12ZM439 79Q501 79 552 101T640 164T698
258T719 373Q719 434 699 487T641 580T552 643T439 666Q378 666 327 644T239 581T180 487T159 373Q159 312 180 259T238 165T327 102T439 79ZM267 847L386 1002H493L613 847H511L440 938L369 847H267Z" />
<glyph unicode="&#xd5;" horiz-adv-x="878" d="M439 -12Q360 -12 291 16T171 97T90 219T61 373Q61 457 90 527T170 649T290 729T439 757Q519 757 587 729T707 649T788 527T818 373Q818 290 789 220T708 97T588 17T439 -12ZM439 79Q501 79 552 101T640 164T698
258T719 373Q719 434 699 487T641 580T552 643T439 666Q378 666 327 644T239 581T180 487T159 373Q159 312 180 259T238 165T327 102T439 79ZM503 847Q476 847 460 856T431 877T407 898T378 907Q362 907 353 895T343 851H268Q268 918 297 951T374 985Q401 985 418
976T447 955T470 934T499 925Q517 925 527 939T537 981H611Q611 919 581 883T503 847Z" />
<glyph unicode="&#xd6;" horiz-adv-x="878" d="M439 -12Q360 -12 291 16T171 97T90 219T61 373Q61 457 90 527T170 649T290 729T439 757Q519 757 587 729T707 649T788 527T818 373Q818 290 789 220T708 97T588 17T439 -12ZM439 79Q501 79 552 101T640 164T698
258T719 373Q719 434 699 487T641 580T552 643T439 666Q378 666 327 644T239 581T180 487T159 373Q159 312 180 259T238 165T327 102T439 79ZM287 847V960H399V847H287ZM479 847V960H592V847H479Z" />
<glyph unicode="&#xd7;" horiz-adv-x="624" d="M152 0L90 62L250 223L91 382L153 444L312 284L472 444L534 382L374 223L534 62L473 0L312 161L152 0Z" />
<glyph unicode="&#xd8;" horiz-adv-x="878" d="M74 0L684 745H804L194 0H74ZM439 -12Q360 -12 291 16T171 97T90 219T61 373Q61 457 90 527T170 649T290 729T439 757Q519 757 587 729T707 649T788 527T818 373Q818 290 789 220T708 97T588 17T439 -12ZM439 79Q501
79 552 101T640 164T698 258T719 373Q719 434 699 487T641 580T552 643T439 666Q378 666 327 644T239 581T180 487T159 373Q159 312 180 259T238 165T327 102T439 79Z" />
<glyph unicode="&#xd9;" horiz-adv-x="706" d="M353 -12Q272 -12 210 22T113 115T78 251V745H177V253Q177 202 199 163T261 101T353 79Q405 79 444 101T506 162T529 253V745H628V251Q628 175 594 116T497 22T353 -12ZM306 847L195 1005H320L400 847H306Z" />
<glyph unicode="&#xda;" horiz-adv-x="706" d="M353 -12Q272 -12 210 22T113 115T78 251V745H177V253Q177 202 199 163T261 101T353 79Q405 79 444 101T506 162T529 253V745H628V251Q628 175 594 116T497 22T353 -12ZM307 847L386 1005H512L400 847H307Z" />
<glyph unicode="&#xdb;" horiz-adv-x="706" d="M353 -12Q272 -12 210 22T113 115T78 251V745H177V253Q177 202 199 163T261 101T353 79Q405 79 444 101T506 162T529 253V745H628V251Q628 175 594 116T497 22T353 -12ZM181 847L300 1002H407L527 847H425L354 938L283
847H181Z" />
<glyph unicode="&#xdc;" horiz-adv-x="706" d="M353 -12Q272 -12 210 22T113 115T78 251V745H177V253Q177 202 199 163T261 101T353 79Q405 79 444 101T506 162T529 253V745H628V251Q628 175 594 116T497 22T353 -12ZM201 847V960H313V847H201ZM393 847V960H506V847H393Z" />
<glyph unicode="&#xdd;" horiz-adv-x="635" d="M269 0V341L11 745H122L338 406H298L513 745H624L368 341V0H269ZM272 847L351 1005H477L365 847H272Z" />
<glyph unicode="&#xde;" horiz-adv-x="640" d="M75 0V745H174V603H339Q413 603 469 575T556 495T588 372Q588 302 557 251T469 171T339 143H174V0H75ZM174 233H342Q386 233 419 250T470 298T489 373Q489 416 471 447T419 495T342 513H174V233Z" />
<glyph unicode="&#xdf;" horiz-adv-x="616" d="M83 -152V528Q83 599 113 650T195 729T314 757Q381 757 431 732T508 663T536 559Q536 498 506 452T423 387L417 413Q494 386 530 339T566 219Q566 153 537 104T453 27T326 0H264V85H323Q389 85 428 122T468 219Q468
279 429 316T323 353H264V438H316Q352 438 379 453T421 495T437 556Q437 591 422 617T379 657T314 672Q274 672 243 655T194 605T176 528V-152H83Z" />
<glyph unicode="&#xe0;" horiz-adv-x="575" d="M230 -12Q177 -12 137 7T73 61T50 141Q50 184 68 218T126 277T226 311L426 344V266L247 236Q195 227 172 203T148 144Q148 111 174 89T241 67Q292 67 329 88T388 147T410 229V366Q410 410 378 437T292 465Q246 465
211 442T158 379L77 421Q92 458 125 487T202 534T294 551Q356 551 403 528T476 463T503 366V0H412V102L429 96Q412 64 383 40T315 2T230 -12ZM248 640L137 798H262L342 640H248Z" />
<glyph unicode="&#xe1;" horiz-adv-x="575" d="M230 -12Q177 -12 137 7T73 61T50 141Q50 184 68 218T126 277T226 311L426 344V266L247 236Q195 227 172 203T148 144Q148 111 174 89T241 67Q292 67 329 88T388 147T410 229V366Q410 410 378 437T292 465Q246 465
211 442T158 379L77 421Q92 458 125 487T202 534T294 551Q356 551 403 528T476 463T503 366V0H412V102L429 96Q412 64 383 40T315 2T230 -12ZM248 640L327 798H453L341 640H248Z" />
<glyph unicode="&#xe2;" horiz-adv-x="575" d="M230 -12Q177 -12 137 7T73 61T50 141Q50 184 68 218T126 277T226 311L426 344V266L247 236Q195 227 172 203T148 144Q148 111 174 89T241 67Q292 67 329 88T388 147T410 229V366Q410 410 378 437T292 465Q246 465
211 442T158 379L77 421Q92 458 125 487T202 534T294 551Q356 551 403 528T476 463T503 366V0H412V102L429 96Q412 64 383 40T315 2T230 -12ZM122 640L241 795H348L468 640H366L295 731L224 640H122Z" />
<glyph unicode="&#xe3;" horiz-adv-x="575" d="M230 -12Q177 -12 137 7T73 61T50 141Q50 184 68 218T126 277T226 311L426 344V266L247 236Q195 227 172 203T148 144Q148 111 174 89T241 67Q292 67 329 88T388 147T410 229V366Q410 410 378 437T292 465Q246 465
211 442T158 379L77 421Q92 458 125 487T202 534T294 551Q356 551 403 528T476 463T503 366V0H412V102L429 96Q412 64 383 40T315 2T230 -12ZM358 640Q331 640 315 649T286 670T262 691T233 700Q217 700 208 688T198 644H123Q123 711 152 744T229 778Q256 778 273
769T302 748T325 727T354 718Q372 718 382 732T392 774H466Q466 712 436 676T358 640Z" />
<glyph unicode="&#xe4;" horiz-adv-x="575" d="M230 -12Q177 -12 137 7T73 61T50 141Q50 184 68 218T126 277T226 311L426 344V266L247 236Q195 227 172 203T148 144Q148 111 174 89T241 67Q292 67 329 88T388 147T410 229V366Q410 410 378 437T292 465Q246 465
211 442T158 379L77 421Q92 458 125 487T202 534T294 551Q356 551 403 528T476 463T503 366V0H412V102L429 96Q412 64 383 40T315 2T230 -12ZM142 640V753H254V640H142ZM334 640V753H447V640H334Z" />
<glyph unicode="&#xe5;" horiz-adv-x="575" d="M230 -12Q177 -12 137 7T73 61T50 141Q50 184 68 218T126 277T226 311L426 344V266L247 236Q195 227 172 203T148 144Q148 111 174 89T241 67Q292 67 329 88T388 147T410 229V366Q410 410 378 437T292 465Q246 465
211 442T158 379L77 421Q92 458 125 487T202 534T294 551Q356 551 403 528T476 463T503 366V0H412V102L429 96Q412 64 383 40T315 2T230 -12ZM295 613Q248 613 214 643T180 724Q180 775 213 805T295 836Q342 836 375 806T409 724Q409 674 376 644T295 613ZM295
675Q315 675 329 688T343 724Q343 747 329 760T295 774Q275 774 261 761T246 724Q246 702 260 689T295 675Z" />
<glyph unicode="&#xe6;" horiz-adv-x="978" d="M230 -12Q177 -12 137 7T73 61T50 141Q50 184 68 218T126 277T226 311L410 341V366Q410 410 378 437T292 465Q246 465 211 442T158 379L77 421Q92 458 125 487T202 534T294 551Q365 551 417 519T490 434L460 435Q495
488 551 519T675 551Q735 551 781 530T861 472T911 389T928 292Q928 281 927 268T923 242H511Q514 190 538 153T600 94T684 73Q739 73 776 98T836 162L914 122Q898 85 865 55T787 6T689 -12Q624 -12 570 15T480 93L499 111V0H412V114L427 93Q410 62 381 38T314
1T230 -12ZM241 67Q292 67 329 88T388 147T410 229V263L247 236Q195 227 172 203T148 144Q148 111 174 89T241 67ZM514 322H828Q827 365 807 398T752 449T675 468Q636 468 601 451T543 400T514 322Z" />
<glyph unicode="&#xe7;" horiz-adv-x="603" d="M322 -12Q243 -12 182 25T85 126T50 270Q50 351 85 414T181 514T322 551Q375 551 421 532T502 481T553 406L470 366Q451 408 412 434T322 461Q273 461 234 436T171 368T148 269Q148 215 171 172T233 103T322 78Q373
78 412 104T470 175L553 133Q537 91 502 59T421 7T322 -12ZM334 -232Q306 -232 276 -223T227 -197L250 -136Q265 -149 284 -156T321 -163Q343 -163 356 -153T369 -125Q369 -103 346 -91T273 -72L296 10H357L346 -35Q398 -45 425 -70T453 -131Q453 -176 420 -204T334
-232Z" />
<glyph unicode="&#xe8;" horiz-adv-x="614" d="M320 -12Q242 -12 181 25T85 126T50 271Q50 352 84 415T178 514T312 551Q372 551 418 530T497 472T547 389T565 292Q565 281 564 268T560 242H118V322H506L462 286Q471 338 452 379T396 444T312 468Q265 468 226
444T166 376T148 270Q144 211 166 167T230 98T321 73Q375 73 412 98T472 162L550 122Q534 85 501 55T422 6T320 -12ZM261 640L150 798H275L355 640H261Z" />
<glyph unicode="&#xe9;" horiz-adv-x="614" d="M320 -12Q242 -12 181 25T85 126T50 271Q50 352 84 415T178 514T312 551Q372 551 418 530T497 472T547 389T565 292Q565 281 564 268T560 242H118V322H506L462 286Q471 338 452 379T396 444T312 468Q265 468 226
444T166 376T148 270Q144 211 166 167T230 98T321 73Q375 73 412 98T472 162L550 122Q534 85 501 55T422 6T320 -12ZM261 640L340 798H466L354 640H261Z" />
<glyph unicode="&#xea;" horiz-adv-x="614" d="M320 -12Q242 -12 181 25T85 126T50 271Q50 352 84 415T178 514T312 551Q372 551 418 530T497 472T547 389T565 292Q565 281 564 268T560 242H118V322H506L462 286Q471 338 452 379T396 444T312 468Q265 468 226
444T166 376T148 270Q144 211 166 167T230 98T321 73Q375 73 412 98T472 162L550 122Q534 85 501 55T422 6T320 -12ZM135 640L254 795H361L481 640H379L308 731L237 640H135Z" />
<glyph unicode="&#xeb;" horiz-adv-x="614" d="M320 -12Q242 -12 181 25T85 126T50 271Q50 352 84 415T178 514T312 551Q372 551 418 530T497 472T547 389T565 292Q565 281 564 268T560 242H118V322H506L462 286Q471 338 452 379T396 444T312 468Q265 468 226
444T166 376T148 270Q144 211 166 167T230 98T321 73Q375 73 412 98T472 162L550 122Q534 85 501 55T422 6T320 -12ZM156 640V753H268V640H156ZM348 640V753H461V640H348Z" />
<glyph unicode="&#xec;" horiz-adv-x="209" d="M58 0V539H151V0H58ZM57 640L-54 798H71L151 640H57Z" />
<glyph unicode="&#xed;" horiz-adv-x="209" d="M58 0V539H151V0H58ZM314 640L393 798H519L407 640H314Z" />
<glyph unicode="&#xee;" horiz-adv-x="209" d="M58 0V539H151V0H58ZM-68 640L51 795H158L278 640H176L105 731L34 640H-68Z" />
<glyph unicode="&#xef;" horiz-adv-x="209" d="M58 0V539H151V0H58ZM-48 640V753H64V640H-48ZM144 640V753H257V640H144Z" />
<glyph unicode="&#xf0;" horiz-adv-x="654" d="M332 -12Q272 -12 221 9T131 67T72 156T50 266Q50 345 86 407T184 505T324 541Q360 541 395 532T461 503T517 448L496 405Q496 458 481 504T438 589T372 654T290 695T196 710Q168 710 140 706T82 691L66 771Q139
795 205 795Q283 795 346 770T458 698T539 591T588 462T605 319Q605 204 568 131T470 23T332 -12ZM328 78Q378 78 418 103T482 171T506 267Q506 318 484 359T421 426T328 451Q275 451 235 427T171 360T148 265Q148 212 172 170T238 103T328 78ZM235 580V639L547
755V695L235 580Z" />
<glyph unicode="&#xf1;" horiz-adv-x="580" d="M72 0V539H163V434L148 443Q168 494 212 522T317 551Q375 551 420 525T492 453T519 349V0H425V319Q425 364 409 395T364 443T296 461Q258 461 229 444T182 395T165 319V0H72ZM354 640Q327 640 311 649T282 670T258
691T229 700Q213 700 204 688T194 644H119Q119 711 148 744T225 778Q252 778 269 769T298 748T321 727T350 718Q368 718 378 732T388 774H462Q462 712 432 676T354 640Z" />
<glyph unicode="&#xf2;" horiz-adv-x="654" d="M328 -12Q250 -12 187 24T87 125T50 270Q50 351 86 414T186 514T328 551Q406 551 469 515T568 415T605 270Q605 188 567 125T467 25T328 -12ZM328 78Q378 78 418 103T482 172T506 270Q506 325 483 367T419 435T328
461Q277 461 237 436T172 368T148 270Q148 216 172 172T236 103T328 78ZM281 640L170 798H295L375 640H281Z" />
<glyph unicode="&#xf3;" horiz-adv-x="654" d="M328 -12Q250 -12 187 24T87 125T50 270Q50 351 86 414T186 514T328 551Q406 551 469 515T568 415T605 270Q605 188 567 125T467 25T328 -12ZM328 78Q378 78 418 103T482 172T506 270Q506 325 483 367T419 435T328
461Q277 461 237 436T172 368T148 270Q148 216 172 172T236 103T328 78ZM281 640L360 798H486L374 640H281Z" />
<glyph unicode="&#xf4;" horiz-adv-x="654" d="M328 -12Q250 -12 187 24T87 125T50 270Q50 351 86 414T186 514T328 551Q406 551 469 515T568 415T605 270Q605 188 567 125T467 25T328 -12ZM328 78Q378 78 418 103T482 172T506 270Q506 325 483 367T419 435T328
461Q277 461 237 436T172 368T148 270Q148 216 172 172T236 103T328 78ZM155 640L274 795H381L501 640H399L328 731L257 640H155Z" />
<glyph unicode="&#xf5;" horiz-adv-x="654" d="M328 -12Q250 -12 187 24T87 125T50 270Q50 351 86 414T186 514T328 551Q406 551 469 515T568 415T605 270Q605 188 567 125T467 25T328 -12ZM328 78Q378 78 418 103T482 172T506 270Q506 325 483 367T419 435T328
461Q277 461 237 436T172 368T148 270Q148 216 172 172T236 103T328 78ZM391 640Q364 640 348 649T319 670T295 691T266 700Q250 700 241 688T231 644H156Q156 711 185 744T262 778Q289 778 306 769T335 748T358 727T387 718Q405 718 415 732T425 774H499Q499 712
469 676T391 640Z" />
<glyph unicode="&#xf6;" horiz-adv-x="654" d="M328 -12Q250 -12 187 24T87 125T50 270Q50 351 86 414T186 514T328 551Q406 551 469 515T568 415T605 270Q605 188 567 125T467 25T328 -12ZM328 78Q378 78 418 103T482 172T506 270Q506 325 483 367T419 435T328
461Q277 461 237 436T172 368T148 270Q148 216 172 172T236 103T328 78ZM176 640V753H288V640H176ZM368 640V753H481V640H368Z" />
<glyph unicode="&#xf7;" horiz-adv-x="624" d="M62 207V294H562V207H62ZM263 0V107H361V0H263ZM263 393V500H361V393H263Z" />
<glyph unicode="&#xf8;" horiz-adv-x="654" d="M33 0L502 539H622L153 0H33ZM328 -12Q250 -12 187 24T87 125T50 270Q50 351 86 414T186 514T328 551Q406 551 469 515T568 415T605 270Q605 188 567 125T467 25T328 -12ZM328 78Q378 78 418 103T482 172T506 270Q506
325 483 367T419 435T328 461Q277 461 237 436T172 368T148 270Q148 216 172 172T236 103T328 78Z" />
<glyph unicode="&#xf9;" horiz-adv-x="580" d="M263 -12Q205 -12 159 15T87 90T61 202V539H154V212Q154 172 170 142T216 95T284 78Q322 78 351 95T397 144T414 220V539H508V0H417V105L432 96Q413 45 368 17T263 -12ZM244 640L133 798H258L338 640H244Z" />
<glyph unicode="&#xfa;" horiz-adv-x="580" d="M263 -12Q205 -12 159 15T87 90T61 202V539H154V212Q154 172 170 142T216 95T284 78Q322 78 351 95T397 144T414 220V539H508V0H417V105L432 96Q413 45 368 17T263 -12ZM244 640L323 798H449L337 640H244Z" />
<glyph unicode="&#xfb;" horiz-adv-x="580" d="M263 -12Q205 -12 159 15T87 90T61 202V539H154V212Q154 172 170 142T216 95T284 78Q322 78 351 95T397 144T414 220V539H508V0H417V105L432 96Q413 45 368 17T263 -12ZM118 640L237 795H344L464 640H362L291 731L220
640H118Z" />
<glyph unicode="&#xfc;" horiz-adv-x="580" d="M263 -12Q205 -12 159 15T87 90T61 202V539H154V212Q154 172 170 142T216 95T284 78Q322 78 351 95T397 144T414 220V539H508V0H417V105L432 96Q413 45 368 17T263 -12ZM138 640V753H250V640H138ZM330 640V753H443V640H330Z" />
<glyph unicode="&#xfd;" horiz-adv-x="553" d="M101 -220Q83 -220 65 -218T31 -208V-125Q42 -126 58 -129T91 -132Q138 -132 162 -111T209 -40L243 41L241 -40L11 539H112L291 79H261L439 539H542L299 -64Q282 -107 256 -143T191 -199T101 -220ZM230 640L309 798H435L323
640H230Z" />
<glyph unicode="&#xfe;" horiz-adv-x="669" d="M72 -200V745H163V423L151 446Q181 494 233 522T352 551Q428 551 488 514T584 414T619 269Q619 190 584 126T489 25T351 -12Q286 -12 233 17T150 99L165 115V-200H72ZM344 78Q395 78 435 103T497 171T520 269Q520
325 498 367T435 435T344 461Q293 461 253 436T189 368T165 269Q165 215 188 172T252 103T344 78Z" />
<glyph unicode="&#xff;" horiz-adv-x="553" d="M101 -220Q83 -220 65 -218T31 -208V-125Q42 -126 58 -129T91 -132Q138 -132 162 -111T209 -40L243 41L241 -40L11 539H112L291 79H261L439 539H542L299 -64Q282 -107 256 -143T191 -199T101 -220ZM124 640V753H236V640H124ZM316
640V753H429V640H316Z" />
<glyph unicode="&#x2013;" horiz-adv-x="597" d="M79 227V312H519V227H79Z" />
<glyph unicode="&#x2014;" horiz-adv-x="927" d="M79 227V312H849V227H79Z" />
<glyph unicode="&#x2018;" horiz-adv-x="299" d="M88 508V593Q88 659 117 701T205 757V712Q174 704 159 683T140 628H185V508H88Z" />
<glyph unicode="&#x2019;" horiz-adv-x="299" d="M88 496V541Q119 549 134 570T153 625H108V745H205V660Q205 595 176 553T88 496Z" />
<glyph unicode="&#x201a;" horiz-adv-x="299" d="M88 -129V-84Q119 -76 134 -55T153 0H108V120H205V35Q205 -30 176 -72T88 -129Z" />
<glyph unicode="&#x201c;" horiz-adv-x="467" d="M255 508V593Q255 659 285 701T373 757V712Q341 704 326 683T307 628H353V508H255ZM88 508V593Q88 659 117 701T205 757V712Q174 704 159 683T140 628H185V508H88Z" />
<glyph unicode="&#x201d;" horiz-adv-x="467" d="M255 496V541Q286 549 302 570T320 625H275V745H373V660Q373 595 344 553T255 496ZM88 496V541Q119 549 134 570T153 625H108V745H205V660Q205 595 176 553T88 496Z" />
<glyph unicode="&#x201e;" horiz-adv-x="467" d="M88 -129V-84Q119 -76 134 -55T153 0H108V120H205V35Q205 -30 176 -72T88 -129ZM255 -129V-84Q286 -76 302 -55T320 0H275V120H373V35Q373 -30 344 -72T255 -129Z" />
<glyph unicode="&#x2022;" horiz-adv-x="577" d="M291 89Q240 89 199 113T134 178T110 271Q110 321 133 360T197 423T291 447Q341 447 380 424T442 360T467 271Q467 219 444 178T381 113T291 89Z" />
<glyph unicode="&#x2039;" horiz-adv-x="330" d="M187 77L34 269L187 462H295L143 269L295 77H187Z" />
<glyph unicode="&#x203a;" horiz-adv-x="330" d="M35 77L187 269L35 462H143L295 269L143 77H35Z" />
</font>
</defs>
</svg>
